<?xml version="1.0" standalone="no"?>
<!DOCTYPE svg PUBLIC "-//W3C//DTD SVG 1.1//EN" "http://www.w3.org/Graphics/SVG/1.1/DTD/svg11.dtd">
<svg xmlns="http://www.w3.org/2000/svg">
<metadata>Generated by Fontastic.me</metadata>
<defs>
<font id="outlined-iconset" horiz-adv-x="512">
<font-face font-family="outlined-iconset" units-per-em="512" ascent="480" descent="-32"/>
<missing-glyph horiz-adv-x="512" />

<glyph unicode="&#57344;" d="M464 144l-208 0l0 352c0 9-7 16-16 16c-9 0-16-7-16-16l0-352l-176 0c-5 0-10-3-13-7c-3-5-4-10-2-15l48-112c3-6 9-10 15-10l320 0c6 0 12 4 15 10l48 112c2 5 1 10-2 15c-3 4-8 7-13 7z m-59-112l-298 0l-35 80l368 0z m-227 312l-96-160c-3-5-3-11 0-16c3-5 8-8 14-8l96 0c9 0 16 7 16 16l0 160c0 7-5 14-12 15c-7 2-14-1-18-7z m-2-152l-52 0l52 86z m96 304l0-320c0-9 7-16 16-16c1 0 144 2 144 176c0 174-143 176-144 176c-9 0-16-7-16-16z m32-18c31-6 96-31 96-142c0-110-65-136-96-142z"/>
<glyph unicode="&#57345;" d="M144 512c-9 0-16-7-16-16l0-480c0-6 4-12 10-15c6-2 13-1 17 4l101 100l101-100c3-3 7-5 11-5c2 0 4 0 6 1c6 3 10 9 10 15l0 480c0 9-7 16-16 16z m208-457l-85 84c-3 3-7 5-11 5c-4 0-8-2-11-5l-85-84l0 425l192 0z"/>
<glyph unicode="&#57346;" d="M155 5l101 100l101-100c3-3 7-5 11-5c2 0 4 0 6 1c6 3 10 9 10 15l0 480c0 9-7 16-16 16l-224 0c-9 0-16-7-16-16l0-480c0-6 4-12 10-15c6-2 13-1 17 4z m5 475l192 0l0-425l-85 84c-3 3-7 5-11 5c-4 0-8-2-11-5l-85-84z m112-192l0 32l32 0c9 0 16 7 16 16c0 9-7 16-16 16l-32 0l0 32c0 9-7 16-16 16c-9 0-16-7-16-16l0-32l-32 0c-9 0-16-7-16-16c0-9 7-16 16-16l32 0l0-32c0-9 7-16 16-16c9 0 16 7 16 16z"/>
<glyph unicode="&#57347;" d="M155 5l101 100l101-100c3-3 7-5 11-5c2 0 4 0 6 1c6 3 10 9 10 15l0 480c0 9-7 16-16 16l-224 0c-9 0-16-7-16-16l0-480c0-6 4-12 10-15c6-2 13-1 17 4z m5 475l192 0l0-425l-85 84c-3 3-7 5-11 5c-4 0-8-2-11-5l-85-84z m133-203c3-3 7-5 11-5c4 0 8 2 11 5c7 6 7 16 0 22l-36 37l36 37c7 6 7 16 0 22c-6 7-16 7-22 0l-37-36l-37 36c-6 7-16 7-22 0c-7-6-7-16 0-22l36-37l-36-37c-7-6-7-16 0-22c3-3 7-5 11-5c4 0 8 2 11 5l37 36z"/>
<glyph unicode="&#57348;" d="M0 96c0-9 7-16 16-16l480 0c9 0 16 7 16 16l0 256c0 9-7 16-16 16l-120 0l-60 74c-3 4-7 6-12 6l-96 0c-5 0-9-2-12-6l-60-74l-120 0c-9 0-16-7-16-16z m144 240c5 0 9 2 12 6l60 74l80 0l60-74c3-4 7-6 12-6l112 0l0-224l-384 0l0 224z m-112 0l32 0l0-224l-32 0z m224-192c44 0 80 36 80 80c0 44-36 80-80 80c-44 0-80-36-80-80c0-44 36-80 80-80z m0 128c26 0 48-22 48-48c0-26-22-48-48-48c-26 0-48 22-48 48c0 26 22 48 48 48z m176 0c4 0 8 2 11 5c3 3 5 7 5 11c0 4-2 8-5 11c-6 6-16 6-22 0c-3-3-5-7-5-11c0-4 2-8 5-11c3-3 7-5 11-5z"/>
<glyph unicode="&#57349;" d="M0 96c0-9 7-16 16-16l480 0c9 0 16 7 16 16l0 288c0 9-7 16-16 16l-336 0l0 32c0 9-7 16-16 16l-80 0c-9 0-16-7-16-16l0-32l-32 0c-9 0-16-7-16-16z m80 320l48 0l0-16l-48 0z m-48-48l448 0l0-256l-448 0z m288-32c-53 0-96-43-96-96c0-53 43-96 96-96c53 0 96 43 96 96c0 53-43 96-96 96z m0-160c-35 0-64 29-64 64c0 35 29 64 64 64c35 0 64-29 64-64c0-35-29-64-64-64z m-192 152l-48 0c-9 0-16-7-16-16c0-9 7-16 16-16l48 0c9 0 16 7 16 16c0 9-7 16-16 16z"/>
<glyph unicode="&#57350;" d="M96 96l336 0c44 0 80 36 80 80c0 39-28 71-65 79c-7 90-83 161-175 161c-82 0-152-53-173-128l-3 0c-53 0-96-43-96-96c0-53 43-96 96-96z m0 160l16 0c8 0 14 5 16 13c12 67 73 115 144 115c79 0 144-65 144-144c0-9 7-16 16-16c26 0 48-22 48-48c0-26-22-48-48-48l-336 0c-35 0-64 29-64 64c0 35 29 64 64 64z m133-75c3-3 7-5 11-5c4 0 8 2 11 5l80 80c7 6 7 16 0 22c-6 7-16 7-22 0l-69-68l-37 36c-6 7-16 7-22 0c-7-6-7-16 0-22z"/>
<glyph unicode="&#57351;" d="M447 255c-7 90-83 161-175 161c-82 0-152-53-173-128l-3 0c-53 0-96-43-96-96c0-53 43-96 96-96l336 0c44 0 80 36 80 80c0 39-28 71-65 79z m-15-127l-336 0c-35 0-64 29-64 64c0 35 29 64 64 64l16 0c8 0 14 5 16 13c12 67 73 115 144 115c79 0 144-65 144-144c0-9 7-16 16-16c26 0 48-22 48-48c0-26-22-48-48-48z m-117 155c-6 7-16 7-22 0l-29-28l-29 28c-6 7-16 7-22 0c-7-6-7-16 0-22l28-29l-28-29c-7-6-7-16 0-22c3-3 7-5 11-5c4 0 8 2 11 5l29 28l29-28c3-3 7-5 11-5c4 0 8 2 11 5c7 6 7 16 0 22l-28 29l28 29c7 6 7 16 0 22z"/>
<glyph unicode="&#57352;" d="M256 320c-9 0-16-7-16-16l0-217l-37 36c-6 7-16 7-22 0c-7-6-7-16 0-22l64-64c3-3 7-5 11-5c4 0 8 2 11 5l64 64c7 6 7 16 0 22c-6 7-16 7-22 0l-37-36l0 217c0 9-7 16-16 16z m191-1c-7 90-83 161-175 161c-82 0-152-53-173-128l-3 0c-53 0-96-43-96-96c0-53 43-96 96-96l96 0c9 0 16 7 16 16c0 9-7 16-16 16l-96 0c-35 0-64 29-64 64c0 35 29 64 64 64l16 0c8 0 14 5 16 13c12 67 73 115 144 115c79 0 144-65 144-144c0-9 7-16 16-16c26 0 48-22 48-48c0-26-22-48-48-48l-112 0c-9 0-16-7-16-16c0-9 7-16 16-16l112 0c44 0 80 36 80 80c0 39-28 71-65 79z"/>
<glyph unicode="&#57353;" d="M256 32c9 0 16 7 16 16l0 217l37-36c3-3 7-5 11-5c4 0 8 2 11 5c7 6 7 16 0 22l-64 64c-6 7-16 7-22 0l-64-64c-7-6-7-16 0-22c6-7 16-7 22 0l37 36l0-217c0-9 7-16 16-16z m191 287c-7 90-83 161-175 161c-82 0-152-53-173-128l-3 0c-53 0-96-43-96-96c0-53 43-96 96-96l96 0c9 0 16 7 16 16c0 9-7 16-16 16l-96 0c-35 0-64 29-64 64c0 35 29 64 64 64l16 0c8 0 14 5 16 13c12 67 73 115 144 115c79 0 144-65 144-144c0-9 7-16 16-16c26 0 48-22 48-48c0-26-22-48-48-48l-112 0c-9 0-16-7-16-16c0-9 7-16 16-16l112 0c44 0 80 36 80 80c0 39-28 71-65 79z"/>
<glyph unicode="&#57354;" d="M447 255c-7 90-83 161-175 161c-82 0-152-53-173-128l-3 0c-53 0-96-43-96-96c0-53 43-96 96-96l336 0c44 0 80 36 80 80c0 39-28 71-65 79z m-15-127l-336 0c-35 0-64 29-64 64c0 35 29 64 64 64l16 0c8 0 14 5 16 13c12 67 73 115 144 115c79 0 144-65 144-144c0-9 7-16 16-16c26 0 48-22 48-48c0-26-22-48-48-48z"/>
<glyph unicode="&#57355;" d="M33 446c-2-7 0-14 5-18l202-171l0-225l-88 0c-9 0-16-7-16-16c0-9 7-16 16-16l208 0c9 0 16 7 16 16c0 9-7 16-16 16l-88 0l0 225l202 171c5 4 7 11 5 18c-2 6-8 10-15 10l-113 0l28 29c7 6 7 16 0 22c-6 7-16 7-22 0l-48-48c-1-1-2-2-3-3l-258 0c-7 0-13-4-15-10z m387-22l-164-139l-164 139z"/>
<glyph unicode="&#57356;" d="M80 304l0-224c0-28 17-80 80-80l128 0c63 0 80 52 80 80l0 16l48 0c9 0 16 7 16 16l0 128c0 9-7 16-16 16l-48 0l0 48c0 9-7 16-16 16l-256 0c-9 0-16-7-16-16z m320-80l0-96l-32 0l0 96z m-288 64l224 0l0-208c0-8-3-48-48-48l-128 0c-45 0-48 40-48 48z m24 128c-9 0-16-7-16-16l0-32c0-9 7-16 16-16c9 0 16 7 16 16l0 16l64 0c9 0 16 7 16 16l0 48c0 9-7 16-16 16l-40 0l0 32c0 9-7 16-16 16c-9 0-16-7-16-16l0-48c0-9 7-16 16-16l40 0l0-16z m128 0c-9 0-16-7-16-16l0-32c0-9 7-16 16-16c9 0 16 7 16 16l0 16l64 0c9 0 16 7 16 16l0 64c0 9-7 16-16 16l-40 0l0 16c0 9-7 16-16 16c-9 0-16-7-16-16l0-32c0-9 7-16 16-16l40 0l0-32z"/>
<glyph unicode="&#57357;" d="M256 512c-68 0-133-27-181-75c-48-48-75-113-75-181c0-68 27-133 75-181c48-48 113-75 181-75c68 0 133 27 181 75c48 48 75 113 75 181c0 68-27 133-75 181c-48 48-113 75-181 75z m158-414c-42-43-98-66-158-66c-60 0-116 23-158 66c-43 42-66 98-66 158c0 60 23 116 66 158c42 43 98 66 158 66c60 0 116-23 158-66c43-42 66-98 66-158c0-60-23-116-66-158z m-79 164l-64 160c-3 6-8 10-15 10c-7 0-12-4-15-10l-64-160c-1-4-1-8 0-12l0 0l64-160c3-6 8-10 15-10c7 0 12 4 15 10l64 160l0 0c1 4 1 8 0 12z m-79 111l40-101l-80 0z m0-234l-40 101l80 0z"/>
<glyph unicode="&#57358;" d="M137 320l-41 0c-9 0-16-7-16-16c0-9 7-16 16-16l96 0l0 96c0 9-7 16-16 16c-9 0-16-7-16-16l0-41l-133 132c-6 7-16 7-22 0c-7-6-7-16 0-22z m238-128l41 0c9 0 16 7 16 16c0 9-7 16-16 16l-96 0l0-96c0-9 7-16 16-16c9 0 16 7 16 16l0 41l133-132c3-3 7-5 11-5c4 0 8 2 11 5c7 6 7 16 0 22z m-359-160c4 0 8 2 11 5l133 132l0-41c0-9 7-16 16-16c9 0 16 7 16 16l0 96l-96 0c-9 0-16-7-16-16c0-9 7-16 16-16l41 0l-132-133c-7-6-7-16 0-22c3-3 7-5 11-5z m469 443l-133-132l0 41c0 9-7 16-16 16c-9 0-16-7-16-16l0-96l96 0c9 0 16 7 16 16c0 9-7 16-16 16l-41 0l132 133c7 6 7 16 0 22c-6 7-16 7-22 0z"/>
<glyph unicode="&#57359;" d="M64 512c-9 0-16-7-16-16l0-128c0-7 4-13 11-15l37-13l0-324c0-9 7-16 16-16c9 0 16 7 16 16l0 324l37 13c7 2 11 8 11 15l0 128c0 9-7 16-16 16c-9 0-16-7-16-16l0-116l-16-6l0 122c0 9-7 16-16 16c-9 0-16-7-16-16l0-122l-16 6l0 116c0 9-7 16-16 16z m208-512c9 0 16 7 16 16l0 200c0 0 0 0 0 0l0 280c0 9-7 16-16 16l-32 0c-8 0-15-6-16-14l-32-264c-1-8 4-16 12-18l52-12l0-188c0-9 7-16 16-16z m-46 244l28 236l2 0l0-244z m166-244c9 0 16 7 16 16l0 306c33 9 56 45 56 78c0 34-27 112-72 112c-45 0-72-78-72-112c0-33 23-69 56-78l0-306c0-9 7-16 16-16z m-40 400c0 33 26 80 40 80c14 0 40-47 40-80c0-22-18-48-40-48c-22 0-40 26-40 48z"/>
<glyph unicode="&#57360;" d="M141 141c3-3 7-5 11-5c4 0 8 2 11 5l93 92l93-92c3-3 7-5 11-5c4 0 8 2 11 5c7 6 7 16 0 22l-92 93l92 93c7 6 7 16 0 22c-6 7-16 7-22 0l-93-92l-93 92c-6 7-16 7-22 0c-7-6-7-16 0-22l92-93l-92-93c-7-6-7-16 0-22z m115-141c68 0 133 27 181 75c48 48 75 113 75 181c0 68-27 133-75 181c-48 48-113 75-181 75c-68 0-133-27-181-75c-48-48-75-113-75-181c0-68 27-133 75-181c48-48 113-75 181-75z m-158 414c42 43 98 66 158 66c60 0 116-23 158-66c43-42 66-98 66-158c0-60-23-116-66-158c-42-43-98-66-158-66c-60 0-116 23-158 66c-43 42-66 98-66 158c0 60 23 116 66 158z"/>
<glyph unicode="&#57361;" d="M0 96c0-9 7-16 16-16l480 0c9 0 16 7 16 16l0 288c0 9-7 16-16 16l-249 0l-60 59c-3 3-7 5-11 5l-160 0c-9 0-16-7-16-16z m32 336l137 0l60-59c3-3 7-5 11-5l240 0l0-256l-448 0z m299-117c-6 7-16 7-22 0l-53-52l-53 52c-6 7-16 7-22 0c-7-6-7-16 0-22l52-53l-52-53c-7-6-7-16 0-22c3-3 7-5 11-5c4 0 8 2 11 5l53 52l53-52c3-3 7-5 11-5c4 0 8 2 11 5c7 6 7 16 0 22l-52 53l52 53c7 6 7 16 0 22z"/>
<glyph unicode="&#57362;" d="M16 120l112 0l0-80c0-6 4-12 9-15c2-1 5-1 7-1c4 0 7 1 10 4l108 92l234 0c9 0 16 7 16 16l0 336c0 9-7 16-16 16l-480 0c-9 0-16-7-16-16l0-336c0-9 7-16 16-16z m16 336l448 0l0-304l-224 0c-4 0-8-1-10-4l-86-73l0 61c0 9-7 16-16 16l-112 0z m152-168l56 0l0-56c0-9 7-16 16-16c9 0 16 7 16 16l0 56l56 0c9 0 16 7 16 16c0 9-7 16-16 16l-56 0l0 56c0 9-7 16-16 16c-9 0-16-7-16-16l0-56l-56 0c-9 0-16-7-16-16c0-9 7-16 16-16z"/>
<glyph unicode="&#57363;" d="M496 488l-480 0c-9 0-16-7-16-16l0-336c0-9 7-16 16-16l112 0l0-80c0-6 4-12 9-15c2-1 5-1 7-1c4 0 7 1 10 4l108 92l234 0c9 0 16 7 16 16l0 336c0 9-7 16-16 16z m-16-336l-224 0c-4 0-8-1-10-4l-86-73l0 61c0 9-7 16-16 16l-112 0l0 304l448 0z m-291 85c3-3 7-5 11-5c4 0 8 2 11 5l45 44l45-44c3-3 7-5 11-5c4 0 8 2 11 5c7 6 7 16 0 22l-44 45l44 45c7 6 7 16 0 22c-6 7-16 7-22 0l-45-44l-45 44c-6 7-16 7-22 0c-7-6-7-16 0-22l44-45l-44-45c-7-6-7-16 0-22z"/>
<glyph unicode="&#57364;" d="M256 208c33 0 64 31 64 64c0 9-7 16-16 16c-9 0-16-7-16-16c0-15-17-32-32-32c-15 0-32 17-32 32c0 9-7 16-16 16c-9 0-16-7-16-16c0-33 31-64 64-64z m-80 128c4 0 8 2 11 5c3 3 5 7 5 11c0 4-2 8-5 11c-6 6-16 6-22 0c-3-3-5-7-5-11c0-4 2-8 5-11c3-3 7-5 11-5z m160 0c4 0 8 2 11 5c3 3 5 7 5 11c0 4-2 8-5 11c-6 6-16 6-22 0c-3-3-5-7-5-11c0-4 2-8 5-11c3-3 7-5 11-5z m-336-200c0-9 7-16 16-16l112 0l0-80c0-6 4-12 9-15c2-1 5-1 7-1c4 0 7 1 10 4l108 92l234 0c9 0 16 7 16 16l0 336c0 9-7 16-16 16l-480 0c-9 0-16-7-16-16z m32 320l448 0l0-304l-224 0c-4 0-8-1-10-4l-86-73l0 61c0 9-7 16-16 16l-112 0z"/>
<glyph unicode="&#57365;" d="M208 208c9 0 16 7 16 16c0 15 17 32 32 32c15 0 32-17 32-32c0-9 7-16 16-16c9 0 16 7 16 16c0 33-31 64-64 64c-33 0-64-31-64-64c0-9 7-16 16-16z m-32 128c4 0 8 2 11 5c3 3 5 7 5 11c0 4-2 8-5 11c-6 6-16 6-22 0c-3-3-5-7-5-11c0-4 2-8 5-11c3-3 7-5 11-5z m160 0c4 0 8 2 11 5c3 3 5 7 5 11c0 4-2 8-5 11c-6 6-16 6-22 0c-3-3-5-7-5-11c0-4 2-8 5-11c3-3 7-5 11-5z m-336-200c0-9 7-16 16-16l112 0l0-80c0-6 4-12 9-15c2-1 5-1 7-1c4 0 7 1 10 4l108 92l234 0c9 0 16 7 16 16l0 336c0 9-7 16-16 16l-480 0c-9 0-16-7-16-16z m32 320l448 0l0-304l-224 0c-4 0-8-1-10-4l-86-73l0 61c0 9-7 16-16 16l-112 0z"/>
<glyph unicode="&#57366;" d="M80 368l352 0c9 0 16 7 16 16c0 9-7 16-16 16l-352 0c-9 0-16-7-16-16c0-9 7-16 16-16z m0-80l352 0c9 0 16 7 16 16c0 9-7 16-16 16l-352 0c-9 0-16-7-16-16c0-9 7-16 16-16z m368-64c0 9-7 16-16 16l-352 0c-9 0-16-7-16-16c0-9 7-16 16-16l352 0c9 0 16 7 16 16z m-448-88c0-9 7-16 16-16l112 0l0-80c0-6 4-12 9-15c2-1 5-1 7-1c4 0 7 1 10 4l108 92l234 0c9 0 16 7 16 16l0 336c0 9-7 16-16 16l-480 0c-9 0-16-7-16-16z m32 320l448 0l0-304l-224 0c-4 0-8-1-10-4l-86-73l0 61c0 9-7 16-16 16l-112 0z"/>
<glyph unicode="&#57367;" d="M256 256c26 0 48 22 48 48c0 26-22 48-48 48c-26 0-48-22-48-48c0-26 22-48 48-48z m0 64c9 0 16-7 16-16c0-9-7-16-16-16c-9 0-16 7-16 16c0 9 7 16 16 16z m-128-64c26 0 48 22 48 48c0 26-22 48-48 48c-26 0-48-22-48-48c0-26 22-48 48-48z m0 64c9 0 16-7 16-16c0-9-7-16-16-16c-9 0-16 7-16 16c0 9 7 16 16 16z m256-64c26 0 48 22 48 48c0 26-22 48-48 48c-26 0-48-22-48-48c0-26 22-48 48-48z m0 64c9 0 16-7 16-16c0-9-7-16-16-16c-9 0-16 7-16 16c0 9 7 16 16 16z m112 168l-480 0c-9 0-16-7-16-16l0-336c0-9 7-16 16-16l112 0l0-80c0-6 4-12 9-15c2-1 5-1 7-1c4 0 7 1 10 4l108 92l234 0c9 0 16 7 16 16l0 336c0 9-7 16-16 16z m-16-336l-224 0c-4 0-8-1-10-4l-86-73l0 61c0 9-7 16-16 16l-112 0l0 304l448 0z"/>
<glyph unicode="&#57368;" d="M380 458c-3 4-7 6-12 6l-224 0c-5 0-9-2-12-6l-128-160c-6-6-5-16 1-21l240-240c3-3 7-5 11-5c4 0 8 2 11 5l240 240c6 5 7 15 1 21z m83-154l-83 0l-38 128l18 0z m-329-32l86-165l-165 165z m36 0l70 0l0-134z m102 0l70 0l-70-134z m106 0l79 0l-165-165z m-70 160l38-128l-74 0l0 128z m-68-128l-74 0l38 128l36 0z m-88 128l18 0l-38-128l-83 0z"/>
<glyph unicode="&#57369;" d="M496 512c-9 0-16-7-16-16l0-116l-16-6l0 122c0 9-7 16-16 16c-9 0-16-7-16-16l0-122l-16 6l0 116c0 9-7 16-16 16c-9 0-16-7-16-16l0-128c0-7 4-13 11-15l37-13l0-324c0-9 7-16 16-16c9 0 16 7 16 16l0 324l37 13c7 2 11 8 11 15l0 128c0 9-7 16-16 16z m-96-280c0 110-90 200-200 200c-110 0-200-90-200-200c0-110 90-200 200-200c110 0 200 90 200 200z m-368 0c0 93 75 168 168 168c93 0 168-75 168-168c0-93-75-168-168-168c-93 0-168 75-168 168z m304 0c0 75-61 136-136 136c-75 0-136-61-136-136c0-75 61-136 136-136c75 0 136 61 136 136z m-240 0c0 57 47 104 104 104c57 0 104-47 104-104c0-57-47-104-104-104c-57 0-104 47-104 104z"/>
<glyph unicode="&#57370;" d="M200 32c110 0 200 90 200 200c0 110-90 200-200 200c-110 0-200-90-200-200c0-110 90-200 200-200z m0 368c93 0 168-75 168-168c0-93-75-168-168-168c-93 0-168 75-168 168c0 93 75 168 168 168z m0-304c75 0 136 61 136 136c0 75-61 136-136 136c-75 0-136-61-136-136c0-75 61-136 136-136z m0 240c57 0 104-47 104-104c0-57-47-104-104-104c-57 0-104 47-104 104c0 57 47 104 104 104z m240-336c9 0 16 7 16 16l0 306c33 9 56 45 56 78c0 34-27 112-72 112c-45 0-72-78-72-112c0-33 23-69 56-78l0-306c0-9 7-16 16-16z m-40 400c0 33 26 80 40 80c14 0 40-47 40-80c0-22-18-48-40-48c-22 0-40 26-40 48z"/>
<glyph unicode="&#57371;" d="M256 320c-9 0-16-7-16-16l0-217l-37 36c-6 7-16 7-22 0c-7-6-7-16 0-22l64-64c3-3 7-5 11-5c4 0 8 2 11 5l64 64c7 6 7 16 0 22c-6 7-16 7-22 0l-37-36l0 217c0 8-7 16-16 16z m240 160l-480 0c-9 0-16-7-16-16l0-288c0-9 7-16 16-16l176 0c9 0 16 7 16 16c0 9-7 16-16 16l-160 0l0 256l448 0l0-256l-160 0c-9 0-16-7-16-16c0-9 7-16 16-16l176 0c9 0 16 7 16 16l0 288c0 9-7 16-16 16z"/>
<glyph unicode="&#57372;" d="M0 144c0-9 7-16 16-16l176 0c9 0 16 7 16 16c0 9-7 16-16 16l-160 0l0 320l137 0l60-59c3-3 7-5 11-5l240 0l0-256l-160 0c-9 0-16-7-16-16c0-9 7-16 16-16l176 0c9 0 16 7 16 16l0 288c0 9-7 16-16 16l-249 0l-60 59c-3 3-7 5-11 5l-160 0c-9 0-16-7-16-16z m256 144c-9 0-16-7-16-16l0-217l-37 36c-6 7-16 7-22 0c-7-6-7-16 0-22l64-64c3-3 7-5 11-5c4 0 8 2 11 5l64 64c7 6 7 16 0 22c-6 7-16 7-22 0l-37-36l0 217c0 9-7 16-16 16z"/>
<glyph unicode="&#57373;" d="M16 320c9 0 16 7 16 16l0 89l141-140c3-3 7-5 11-5c4 0 8 2 11 5c7 6 7 16 0 22l-140 141l89 0c9 0 16 7 16 16c0 9-7 16-16 16l-128 0c-9 0-16-7-16-16l0-128c0-9 7-16 16-16z m0-288l128 0c9 0 16 7 16 16c0 9-7 16-16 16l-89 0l140 141c7 6 7 16 0 22c-6 7-16 7-22 0l-141-140l0 89c0 9-7 16-16 16c-9 0-16-7-16-16l0-128c0-9 7-16 16-16z m480 160c-9 0-16-7-16-16l0-89l-141 140c-6 7-16 7-22 0c-7-6-7-16 0-22l140-141l-89 0c-9 0-16-7-16-16c0-9 7-16 16-16l128 0c9 0 16 7 16 16l0 128c0 9-7 16-16 16z m0 288l-128 0c-9 0-16-7-16-16c0-9 7-16 16-16l89 0l-140-141c-7-6-7-16 0-22c3-3 7-5 11-5c4 0 8 2 11 5l141 140l0-89c0-9 7-16 16-16c9 0 16 7 16 16l0 128c0 9-7 16-16 16z"/>
<glyph unicode="&#57374;" d="M256 392c-167 0-250-122-253-127c-4-6-4-13 0-18c3-5 86-127 253-127c167 0 250 122 253 127c4 6 4 13 0 18c-3 5-86 127-253 127z m0-240c-124 0-198 77-220 104c22 27 95 104 220 104c124 0 198-77 220-104c-22-27-95-104-220-104z m0 176c-40 0-72-32-72-72c0-40 32-72 72-72c40 0 72 32 72 72c0 40-32 72-72 72z m0-112c-22 0-40 18-40 40c0 22 18 40 40 40c22 0 40-18 40-40c0-22-18-40-40-40z"/>
<glyph unicode="&#57375;" d="M336 72l0 64c0 9-7 16-16 16l-304 0c-9 0-16-7-16-16l0-64c0-9 7-16 16-16l304 0c9 0 16 7 16 16z m-32 16l-272 0l0 32l272 0z m-256 112c-9 0-16-7-16-16c0-9 7-16 16-16l240 0c9 0 16 7 16 16c0 9-7 16-16 16z m-32 16l304 0c9 0 16 7 16 16c0 1-2 112-168 112c-166 0-168-111-168-112c0-9 7-16 16-16z m152 96c97 0 125-41 133-64l-266 0c8 23 36 64 133 64z m328 64l-82 0l-14 83c-2 8-10 14-19 13c-8-2-14-10-13-19l13-77l-13 0c-4 0-9-2-12-5c-3-3-4-7-4-12l16-288c0-8 8-15 16-15l96 0c8 0 16 7 16 15l16 288c0 5-1 9-4 12c-3 3-8 5-12 5z m-31-288l-66 0l-14 256l15 0c0 0 0 0 0 0c0 0 0 0 0 0l79 0z"/>
<glyph unicode="&#57376;" d="M96 512c-9 0-16-7-16-16l0-480c0-9 7-16 16-16c9 0 16 7 16 16l0 240l304 0c6 0 11 3 14 8c3 4 3 10 0 15l-44 89l44 89c3 5 3 11 0 15c-3 5-8 8-14 8l-304 0l0 16c0 9-7 16-16 16z m294-64l-36-73c-3-4-3-10 0-14l36-73l-278 0l0 160z"/>
<glyph unicode="&#57377;" d="M0 448l0-352c0-9 7-16 16-16l480 0c9 0 16 7 16 16l0 288c0 9-7 16-16 16l-249 0l-60 59c-3 3-7 5-11 5l-160 0c-9 0-16-7-16-16z m32-16l137 0l60-59c3-3 7-5 11-5l240 0l0-256l-448 0z"/>
<glyph unicode="&#57378;" d="M320 328c0 35-29 64-64 64c-35 0-64-29-64-64c0-35 29-64 64-64c35 0 64 29 64 64z m-96 0c0 18 14 32 32 32c18 0 32-14 32-32c0-18-14-32-32-32c-18 0-32 14-32 32z m32-328c4 0 9 2 12 5c7 8 173 198 172 323c0 101-83 184-184 184c-101 0-184-83-184-184c0-125 165-315 172-323c3-3 7-5 12-5z m0 480c83 0 152-68 152-152c0-95-114-241-152-287c-38 46-152 192-152 287c0 84 68 152 152 152z"/>
<glyph unicode="&#57379;" d="M288 480c106 0 192-86 192-192c0-106-86-192-192-192c-34 0-63 1-89 14c-7 4-17 1-21-7c-4-7-1-17 7-21c22-12 46-16 71-17l0-33l-48 0c-9 0-16-7-16-16c0-9 7-16 16-16l128 0c9 0 16 7 16 16c0 9-7 16-16 16l-48 0l0 32c124 0 224 100 224 224c0 124-100 224-224 224c-9 0-16-7-16-16c0-9 7-16 16-16z m0-360c93 0 168 75 168 168c0 93-75 168-168 168c-93 0-168-75-168-168c0-93 75-168 168-168z m0 304c75 0 136-61 136-136c0-75-61-136-136-136c-75 0-136 61-136 136c0 75 61 136 136 136z"/>
<glyph unicode="&#57380;" d="M496 32l-16 0l0 224c0 18-14 32-32 32l-48 0c-18 0-32-14-32-32l0-224l-16 0l0 384c0 18-14 32-32 32l-48 0c-18 0-32-14-32-32l0-384l-16 0l0 144c0 18-14 32-32 32l-48 0c-18 0-32-14-32-32l0-144l-80 0l0 64l32 0c9 0 16 7 16 16c0 9-7 16-16 16l-32 0l0 48c9 0 16 7 16 16c0 9-7 16-16 16l0 48l32 0c9 0 16 7 16 16c0 9-7 16-16 16l-32 0l0 48c9 0 16 7 16 16c0 9-7 16-16 16l0 48l32 0c9 0 16 7 16 16c0 9-7 16-16 16l-32 0l0 48c0 9-7 16-16 16c-9 0-16-7-16-16l0-464c0-18 14-32 32-32l464 0c9 0 16 7 16 16c0 9-7 16-16 16z m-96 224l48 0l0-224l-48 0z m-128 160l48 0l0-384l-48 0z m-128-240l48 0l0-144l-48 0z"/>
<glyph unicode="&#57381;" d="M496 32l-464 0l0 64l32 0c9 0 16 7 16 16c0 9-7 16-16 16l-32 0l0 48c9 0 16 7 16 16c0 9-7 16-16 16l0 48l32 0c9 0 16 7 16 16c0 9-7 16-16 16l-32 0l0 48c9 0 16 7 16 16c0 9-7 16-16 16l0 48l32 0c9 0 16 7 16 16c0 9-7 16-16 16l-32 0l0 48c0 9-7 16-16 16c-9 0-16-7-16-16l0-464c0-18 14-32 32-32l464 0c9 0 16 7 16 16c0 9-7 16-16 16z m-245 331l-80 80c-6 7-16 7-22 0c-7-6-7-16 0-22l68-69l-36-37c-7-6-7-16 0-22l164-165l-41 0c-9 0-16-7-16-16c0-9 7-16 16-16l80 0c1 0 2 0 3 0c1 0 1 1 2 1c0 0 1 0 1 0c1 0 1 1 2 1c0 0 0 0 1 1c2 1 3 2 4 4c1 1 1 1 1 1c0 1 1 1 1 2c0 0 0 1 0 1c0 1 1 1 1 2c0 1 0 2 0 3l0 80c0 9-7 16-16 16c-9 0-16-7-16-16l0-41l-153 153l36 37c7 6 7 16 0 22z"/>
<glyph unicode="&#57382;" d="M496 32l-464 0l0 64l32 0c9 0 16 7 16 16c0 9-7 16-16 16l-32 0l0 48c9 0 16 7 16 16c0 9-7 16-16 16l0 48l32 0c9 0 16 7 16 16c0 9-7 16-16 16l-32 0l0 48c9 0 16 7 16 16c0 9-7 16-16 16l0 48l32 0c9 0 16 7 16 16c0 9-7 16-16 16l-32 0l0 48c0 9-7 16-16 16c-9 0-16-7-16-16l0-464c0-18 14-32 32-32l464 0c9 0 16 7 16 16c0 9-7 16-16 16z m-48 208c9 0 16 7 16 16l0 80c0 1 0 2 0 3c0 1-1 1-1 2c0 0 0 1 0 1c0 1-1 1-1 2c0 0 0 0-1 1c-1 2-2 3-4 4c-1 1-1 1-1 1c-1 0-1 1-2 1c0 0-1 0-1 0c-1 0-1 1-2 1c-1 0-2 0-3 0l-80 0c-9 0-16-7-16-16c0-9 7-16 16-16l41 0l-153-153l-37 36c-6 7-16 7-22 0l-80-80c-7-6-7-16 0-22c3-3 7-5 11-5c4 0 8 2 11 5l69 68l37-36c6-7 16-7 22 0l165 164l0-41c0-9 7-16 16-16z"/>
<glyph unicode="&#57383;" d="M363 235c-6 7-16 7-22 0l-13-12l-129 129l84 85c7 6 7 16 0 22l-32 32c-6 7-16 7-22 0c0 0-18-16-39-16c-12 0-23 5-35 16c-6 7-16 7-22 0l-128-128c-7-6-7-16 0-22l80-80c3-3 7-5 11-5c4 0 8 2 11 5l69 68l129-129l-12-13c-7-6-7-16 0-22l144-144c3-3 7-5 11-5c4 0 8 2 11 5l48 48c7 6 7 16 0 22z m-267 60l-57 57l106 106c14-10 29-15 45-15c21 0 38 8 49 16l10-11z m352-240l-121 121l25 25l121-121z"/>
<glyph unicode="&#57384;" d="M224 160c0 9-7 16-16 16c-9 0-16-7-16-16c0-33 31-64 64-64c33 0 64 31 64 64c0 9-7 16-16 16c-9 0-16-7-16-16c0-15-17-32-32-32c-15 0-32 17-32 32z m-37 75c-6 6-16 6-22 0c-3-3-5-7-5-11c0-4 2-8 5-11c3-3 7-5 11-5c4 0 8 2 11 5c3 3 5 7 5 11c0 4-2 8-5 11z m149-27c4 0 8 2 11 5c3 3 5 7 5 11c0 4-2 8-5 11c-6 6-16 6-22 0c-3-3-5-7-5-11c0-4 2-8 5-11c3-3 7-5 11-5z m-80 312c0 0 0 0 0 0c-5 0-9-2-12-6c-7-9-173-214-172-338c0-100 80-176 184-176c105 0 184 76 184 176c0 124-164 329-171 338c-3 4-8 6-13 6z m0-488c-86 0-152 62-152 144c0 95 114 252 152 302c38-50 152-207 152-302c0-82-65-144-152-144z"/>
<glyph unicode="&#57385;" d="M96 72l16 0c9 0 16 7 16 16l0 208c0 5 1 112 128 112c126 0 128-107 128-112l0-208c0-9 7-16 16-16l16 0c53 0 96 43 96 96c0 53-43 96-96 96l0 32c0 1-2 144-160 144c-158 0-160-143-160-144l0-32c-53 0-96-43-96-96c0-53 43-96 96-96z m384 96c0-35-29-64-64-64l0 128c35 0 64-29 64-64z m-384 64l0-128c-35 0-64 29-64 64c0 35 29 64 64 64z"/>
<glyph unicode="&#57386;" d="M384 488c-56 0-104-28-128-69c-24 41-72 69-128 69c-84 0-128-72-128-144c0-167 238-312 248-318c2-1 5-2 8-2c3 0 6 1 8 2c10 6 248 151 248 318c0 72-44 144-128 144z m-128-429c-41 27-224 152-224 285c0 54 30 112 96 112c54 0 112-37 112-96c0-9 7-16 16-16c9 0 16 7 16 16c0 59 58 96 112 96c66 0 96-58 96-112c0-133-183-258-224-285z"/>
<glyph unicode="&#57387;" d="M248 26l8-5l8 5c10 6 248 151 248 318c0 72-44 144-128 144c-56 0-104-28-128-69c-24 41-72 69-128 69c-84 0-128-72-128-144c0-167 238-312 248-318z m136 430c66 0 96-58 96-112c0-129-171-250-220-282l39 39c7 6 7 16 0 22l-36 37l36 37c7 6 7 16 0 22l-36 37l52 53c7 6 7 16 0 22l-42 42c8 52 61 83 111 83z m-256 0c54 0 112-37 112-96l2 0c1-1 2-2 3-3l36-37l-52-53c-7-6-7-16 0-22l36-37l-36-37c-7-6-7-16 0-22l36-37l-35-35c-65 45-198 153-198 267c0 54 30 112 96 112z"/>
<glyph unicode="&#57388;" d="M320 0l96 0c9 0 16 7 16 16l0 224l64 0c6 0 12 4 15 10c2 6 1 13-4 17l-240 240c-6 7-16 7-22 0l-240-240c-5-4-6-11-4-17c3-6 9-10 15-10l64 0l0-224c0-9 7-16 16-16l96 0c9 0 16 7 16 16l0 112l96 0l0-112c0-9 7-16 16-16z m-128 160c-9 0-16-7-16-16l0-112l-64 0l0 224c0 9-7 16-16 16l-41 0l201 201l201-201l-41 0c-9 0-16-7-16-16l0-224l-64 0l0 112c0 9-7 16-16 16z"/>
<glyph unicode="&#57389;" d="M400 384l0 48l32 0c9 0 16 7 16 16l0 48c0 9-7 16-16 16l-352 0c-9 0-16-7-16-16l0-48c0-9 7-16 16-16l32 0l0-48c0-56 32-104 78-128c-46-24-78-72-78-128l0-48l-32 0c-9 0-16-7-16-16l0-48c0-9 7-16 16-16l352 0c9 0 16 7 16 16l0 48c0 9-7 16-16 16l-32 0l0 48c0 56-32 104-78 128c46 24 78 72 78 128z m-304 96l320 0l0-16l-320 0z m320-448l-320 0l0 16l320 0z m-48 96l0-48l-224 0l0 48c0 62 50 112 112 112c62 0 112-50 112-112z m-112 144c-62 0-112 50-112 112l0 48l224 0l0-48c0-62-50-112-112-112z"/>
<glyph unicode="&#57390;" d="M16 72l480 0c9 0 16 7 16 16l0 336c0 9-7 16-16 16l-480 0c-9 0-16-7-16-16l0-336c0-9 7-16 16-16z m16 32l0 25l159 145l86-85c3-4 7-5 12-5c5 0 9 3 12 6l37 50l142-127l0-9z m448 304l0-252l-133 120c-4 3-8 4-13 4c-4-1-8-3-11-6l-37-50l-83 83c-6 6-15 7-22 1l-149-136l0 236z m-72-128c31 0 56 25 56 56c0 31-25 56-56 56c-31 0-56-25-56-56c0-31 25-56 56-56z m0 80c13 0 24-11 24-24c0-13-11-24-24-24c-13 0-24 11-24 24c0 13 11 24 24 24z"/>
<glyph unicode="&#57391;" d="M400 368c-56 0-103-42-111-96l-273 0c-9 0-16-7-16-16c0-9 7-16 16-16l16 0l0-48c0-9 7-16 16-16c9 0 16 7 16 16l0 48l32 0l0-16c0-9 7-16 16-16c9 0 16 7 16 16l0 16l161 0c8-54 55-96 111-96c62 0 112 50 112 112c0 62-50 112-112 112z m0-192c-44 0-80 36-80 80c0 44 36 80 80 80c44 0 80-36 80-80c0-44-36-80-80-80z"/>
<glyph unicode="&#57392;" d="M256 512c-141 0-256-115-256-256c0-141 115-256 256-256c141 0 256 115 256 256c0 141-115 256-256 256z m215-192l-87 0c-3 0-5-1-7-2c-13 25-34 46-59 59c1 2 2 4 2 7l0 87c72-22 129-79 151-151z m-83-32l90 0c1-10 2-21 2-32c0-11-1-22-2-32l-90 0c3 10 4 21 4 32c0 11-1 22-4 32z m-132-136c-57 0-104 47-104 104c0 57 47 104 104 104c57 0 104-47 104-104c0-57-47-104-104-104z m32 326l0-90c-10 3-21 4-32 4c-11 0-22-1-32-4l0 90c10 1 21 2 32 2c11 0 22-1 32-2z m-96-7l0-87c0-3 1-5 2-7c-25-13-46-34-59-59c-2 1-4 2-7 2l-87 0c22 72 79 129 151 151z m-160-215c0 11 1 22 2 32l90 0c-3-10-4-21-4-32c0-11 1-22 4-32l-90 0c-1 10-2 21-2 32z m9-64l87 0c3 0 5 1 7 2c13-25 34-46 59-59c-1-2-2-4-2-7l0-87c-72 22-129 79-151 151z m183-158l0 90c10-3 21-4 32-4c11 0 22 1 32 4l0-90c-10-1-21-2-32-2c-11 0-22 1-32 2z m96 7l0 87c0 3-1 5-2 7c25 13 46 34 59 59c2-1 4-2 7-2l87 0c-22-72-79-129-151-151z"/>
<glyph unicode="&#57393;" d="M16 336l48 0c9 0 16 7 16 16c0 9-7 16-16 16l-48 0c-9 0-16-7-16-16c0-9 7-16 16-16z m480 32l-320 0c-9 0-16-7-16-16c0-9 7-16 16-16l320 0c9 0 16 7 16 16c0 9-7 16-16 16z m-480-128l48 0c9 0 16 7 16 16c0 9-7 16-16 16l-48 0c-9 0-16-7-16-16c0-9 7-16 16-16z m480 32l-320 0c-9 0-16-7-16-16c0-9 7-16 16-16l320 0c9 0 16 7 16 16c0 9-7 16-16 16z m-480-128l48 0c9 0 16 7 16 16c0 9-7 16-16 16l-48 0c-9 0-16-7-16-16c0-9 7-16 16-16z m480 32l-320 0c-9 0-16-7-16-16c0-9 7-16 16-16l320 0c9 0 16 7 16 16c0 9-7 16-16 16z"/>
<glyph unicode="&#57394;" d="M112 368l0-112l-48 0c-9 0-16-7-16-16l0-224c0-9 7-16 16-16l384 0c9 0 16 7 16 16l0 224c0 9-7 16-16 16l-48 0l0 112c0 79-65 144-144 144c-79 0-144-65-144-144z m320-336l-352 0l0 192l352 0z m-176 448c62 0 112-50 112-112l0-112l-224 0l0 112c0 62 50 112 112 112z m0-288c-26 0-48-22-48-48c0-21 13-39 32-45l0-19c0-9 7-16 16-16c9 0 16 7 16 16l0 19c19 6 32 24 32 45c0 26-22 48-48 48z m0-64c-9 0-16 7-16 16c0 9 7 16 16 16c9 0 16-7 16-16c0-9-7-16-16-16z"/>
<glyph unicode="&#57395;" d="M48 240l0-224c0-9 7-16 16-16l384 0c9 0 16 7 16 16l0 224c0 9-7 16-16 16l-304 0l0 112c0 62 50 112 112 112c62 0 112-50 112-112l0-32c0-9 7-16 16-16c9 0 16 7 16 16l0 32c0 79-65 144-144 144c-79 0-144-65-144-144l0-112l-48 0c-9 0-16-7-16-16z m32-16l352 0l0-192l-352 0z m176-32c-26 0-48-22-48-48c0-21 13-39 32-45l0-19c0-9 7-16 16-16c9 0 16 7 16 16l0 19c19 6 32 24 32 45c0 26-22 48-48 48z m0-64c-9 0-16 7-16 16c0 9 7 16 16 16c9 0 16-7 16-16c0-9-7-16-16-16z"/>
<glyph unicode="&#57396;" d="M96 0l320 0c9 0 16 7 16 16l0 480c0 9-7 16-16 16l-320 0c-9 0-16-7-16-16l0-480c0-9 7-16 16-16z m16 480l288 0l0-448l-288 0z m144-192c-62 0-112-50-112-112c0-62 50-112 112-112c62 0 112 50 112 112c0 62-50 112-112 112z m0-192c-44 0-80 36-80 80c0 44 36 80 80 80c44 0 80-36 80-80c0-44-36-80-80-80z m0 224c35 0 64 29 64 64c0 35-29 64-64 64c-35 0-64-29-64-64c0-35 29-64 64-64z m0 96c18 0 32-14 32-32c0-18-14-32-32-32c-18 0-32 14-32 32c0 18 14 32 32 32z m0-216c-13 0-24-11-24-24c0-13 11-24 24-24c13 0 24 11 24 24c0 13-11 24-24 24z m0-32c-4 0-8 4-8 8c0 4 4 8 8 8c4 0 8-4 8-8c0-4-4-8-8-8z"/>
<glyph unicode="&#57397;" d="M363 219c-6 7-16 7-22 0l-13-12l-30 30c24 29 38 66 38 107c0 93-75 168-168 168c-93 0-168-75-168-168c0-93 75-168 168-168c41 0 78 14 107 38l30-30l-12-13c-7-6-7-16 0-22l144-144c3-3 7-5 11-5c4 0 8 2 11 5l48 48c7 6 7 16 0 22z m-331 125c0 75 61 136 136 136c75 0 136-61 136-136c0-75-61-136-136-136c-75 0-136 61-136 136z m416-305l-121 121l25 25l121-121z"/>
<glyph unicode="&#57398;" d="M363 219c-6 7-16 7-22 0l-13-12l-30 30c24 29 38 66 38 107c0 93-75 168-168 168c-93 0-168-75-168-168c0-93 75-168 168-168c41 0 78 14 107 38l30-30l-12-13c-7-6-7-16 0-22l144-144c3-3 7-5 11-5c4 0 8 2 11 5l48 48c7 6 7 16 0 22z m-331 125c0 75 61 136 136 136c75 0 136-61 136-136c0-75-61-136-136-136c-75 0-136 61-136 136z m416-305l-121 121l25 25l121-121z m-208 321l-144 0c-9 0-16-7-16-16c0-9 7-16 16-16l144 0c9 0 16 7 16 16c0 9-7 16-16 16z"/>
<glyph unicode="&#57399;" d="M168 176c41 0 78 14 107 38l30-30l-12-13c-7-6-7-16 0-22l144-144c3-3 7-5 11-5c4 0 8 2 11 5l48 48c7 6 7 16 0 22l-144 144c-6 7-16 7-22 0l-13-12l-30 30c24 29 38 66 38 107c0 93-75 168-168 168c-93 0-168-75-168-168c0-93 75-168 168-168z m305-112l-25-25l-121 121l25 25z m-305 416c75 0 136-61 136-136c0-75-61-136-136-136c-75 0-136 61-136 136c0 75 61 136 136 136z m-72-152l56 0l0-56c0-9 7-16 16-16c9 0 16 7 16 16l0 56l56 0c9 0 16 7 16 16c0 9-7 16-16 16l-56 0l0 56c0 9-7 16-16 16c-9 0-16-7-16-16l0-56l-56 0c-9 0-16-7-16-16c0-9 7-16 16-16z"/>
<glyph unicode="&#57400;" d="M496 416l-480 0c-9 0-16-7-16-16l0-288c0-9 7-16 16-16l480 0c9 0 16 7 16 16l0 288c0 9-7 16-16 16z m-51-32l-189-117l-189 117z m-413-256l0 240l224-139l224 139l0-240z"/>
<glyph unicode="&#57401;" d="M502 319l-70 28l0 149c0 9-7 16-16 16l-320 0c-9 0-16-7-16-16l0-149l-70-28c-6-3-10-9-10-15l0 0l0-288c0-9 7-16 16-16l480 0c9 0 16 7 16 16l0 288l0 0c0 6-4 12-10 15z m-38-19l-32-20l0 32z m-64 180l0-144c0 0 0 0 0 0l0-76l-144-89l-144 89l0 76c0 0 0 0 0 0l0 144z m-320-200l-32 20l32 12z m-48-248l0 240l216-134c2-1 5-2 8-2c3 0 6 1 8 2l216 134l0-240z m256 384l64 0c9 0 16 7 16 16c0 9-7 16-16 16l-64 0c-9 0-16-7-16-16c0-9 7-16 16-16z m-128-64l192 0c9 0 16 7 16 16c0 9-7 16-16 16l-192 0c-9 0-16-7-16-16c0-9 7-16 16-16z m0-64l192 0c9 0 16 7 16 16c0 9-7 16-16 16l-192 0c-9 0-16-7-16-16c0-9 7-16 16-16z"/>
<glyph unicode="&#57402;" d="M505 485c-4 3-10 4-15 2l-154-62l-154 62c-4 1-8 1-12 0l-160-64c-6-3-10-8-10-15l0-368c0-5 3-10 7-13c3-2 6-3 9-3c2 0 4 0 6 1l154 62l154-62c4-1 8-1 12 0l160 64c6 3 10 8 10 15l0 368c0 5-3 10-7 13z m-313-37l128-51l0-333l-128 51z m-160-51l128 51l0-333l-128-51z m448-282l-128-51l0 333l128 51z"/>
<glyph unicode="&#57403;" d="M496 384l-136 0l0 48c0 9-7 16-16 16l-176 0c-9 0-16-7-16-16l0-48l-136 0c-9 0-16-7-16-16l0-288c0-9 7-16 16-16l480 0c9 0 16 7 16 16l0 288c0 9-7 16-16 16z m-312 32l144 0l0-32l-144 0z m296-320l-448 0l0 256l448 0z m-208 144l0 64c0 9-7 16-16 16c-9 0-16-7-16-16l0-64l-64 0c-9 0-16-7-16-16c0-9 7-16 16-16l64 0l0-64c0-9 7-16 16-16c9 0 16 7 16 16l0 64l64 0c9 0 16 7 16 16c0 9-7 16-16 16z"/>
<glyph unicode="&#57404;" d="M240 161l0-129l-104 0c-9 0-16-7-16-16c0-9 7-16 16-16l240 0c9 0 16 7 16 16c0 9-7 16-16 16l-104 0l0 129c67 10 128 76 128 143c0 9-7 16-16 16c-9 0-16-7-16-16c0-55-57-112-112-112c-55 0-112 57-112 112c0 9-7 16-16 16c-9 0-16-7-16-16c0-67 61-133 128-143z m16 63c44 0 80 36 80 80l0 128c0 44-36 80-80 80c-44 0-80-36-80-80l0-128c0-44 36-80 80-80z m0 256c26 0 48-22 48-48l0-8l-16 0c-9 0-16-7-16-16c0-9 7-16 16-16l16 0l0-32l-16 0c-9 0-16-7-16-16c0-9 7-16 16-16l16 0l0-24c0-26-22-48-48-48c-26 0-48 22-48 48l0 24l16 0c9 0 16 7 16 16c0 9-7 16-16 16l-16 0l0 32l16 0c9 0 16 7 16 16c0 9-7 16-16 16l-16 0l0 8c0 26 22 48 48 48z"/>
<glyph unicode="&#57405;" d="M37 69l64-64c3-3 7-5 11-5l48 0c4 0 8 2 11 5l165 164l25-25l-52-53c-7-6-7-16 0-22c6-7 16-7 22 0l64 64c7 6 7 16 0 22l-48 48c-6 7-16 7-22 0l-172-171l-34 0l-48 48l9 9l21-20c3-3 7-5 11-5c4 0 8 2 11 5l207 207c10-3 20-4 30-4c66 0 120 54 120 120c0 66-54 120-120 120c-66 0-120-54-120-120c0-10 1-20 4-30l-207-207c-7-6-7-16 0-22l20-21l-20-21c-7-6-7-16 0-22z m323 411c49 0 88-39 88-88c0-49-39-88-88-88c-49 0-88 39-88 88c0 49 39 88 88 88z m-61-191l-43-42l-41 41l42 43c10-17 25-32 42-42z m-107-24l41-41l-121-121l-41 41z"/>
<glyph unicode="&#57406;" d="M256 512c-68 0-133-27-181-75c-48-48-75-113-75-181c0-68 27-133 75-181c48-48 113-75 181-75c68 0 133 27 181 75c48 48 75 113 75 181c0 68-27 133-75 181c-48 48-113 75-181 75z m158-414c-42-43-98-66-158-66c-60 0-116 23-158 66c-43 42-66 98-66 158c0 60 23 116 66 158c42 43 98 66 158 66c60 0 116-23 158-66c43-42 66-98 66-158c0-60-23-116-66-158z m-14 174l-288 0c-9 0-16-7-16-16c0-9 7-16 16-16l288 0c9 0 16 7 16 16c0 9-7 16-16 16z"/>
<glyph unicode="&#57407;" d="M496 464l-416 0c-9 0-16-7-16-16l0-48l-48 0c-9 0-16-7-16-16l0-320c0-9 7-16 16-16l416 0c9 0 16 7 16 16l0 48l48 0c9 0 16 7 16 16l0 320c0 9-7 16-16 16z m-80-96l0-253l-86 73c-5 5-12 5-18 2l-69-41l-103 118c-3 3-7 5-11 5c-5 0-9-2-12-5l-85-84l0 185z m-384-231l95 96l101-116c5-5 14-7 20-3l70 42l89-76l-375 0z m448 7l-32 0l0 240c0 9-7 16-16 16l-336 0l0 32l384 0z m-152 80c31 0 56 25 56 56c0 31-25 56-56 56c-31 0-56-25-56-56c0-31 25-56 56-56z m0 80c13 0 24-11 24-24c0-13-11-24-24-24c-13 0-24 11-24 24c0 13 11 24 24 24z"/>
<glyph unicode="&#57408;" d="M256 512c-68 0-133-27-181-75c-48-48-75-113-75-181c0-68 27-133 75-181c48-48 113-75 181-75c68 0 133 27 181 75c48 48 75 113 75 181c0 68-27 133-75 181c-48 48-113 75-181 75z m158-414c-42-43-98-66-158-66c-60 0-116 23-158 66c-43 42-66 98-66 158c0 60 23 116 66 158c42 43 98 66 158 66c60 0 116-23 158-66c43-42 66-98 66-158c0-60-23-116-66-158z m-183 260c-6 3-12 2-17-1l-112-88c-4-3-6-8-6-13c0-5 2-10 6-13l112-88c3-2 6-3 10-3c2 0 5 1 7 2c6 2 9 8 9 14l0 176c0 6-3 12-9 14z m-23-157l-70 55l70 55z m183 157c-6 3-12 2-17-1l-112-88c-4-3-6-8-6-13c0-5 2-10 6-13l112-88c3-2 6-3 10-3c2 0 5 1 7 2c6 2 9 8 9 14l0 176c0 6-3 12-9 14z m-23-157l-70 55l70 55z"/>
<glyph unicode="&#57409;" d="M256 512c-68 0-133-27-181-75c-48-48-75-113-75-181c0-68 27-133 75-181c48-48 113-75 181-75c68 0 133 27 181 75c48 48 75 113 75 181c0 68-27 133-75 181c-48 48-113 75-181 75z m158-414c-42-43-98-66-158-66c-60 0-116 23-158 66c-43 42-66 98-66 158c0 60 23 116 66 158c42 43 98 66 158 66c60 0 116-23 158-66c43-42 66-98 66-158c0-60-23-116-66-158z m-151 260c-6 3-12 2-17-1l-112-88c-4-3-6-8-6-13c0-5 2-10 6-13l112-88c3-2 6-3 10-3c2 0 5 1 7 2c6 2 9 8 9 14l0 176c0 6-3 12-9 14z m-23-157l-70 55l70 55z m166 156l-112-88c-4-3-6-8-6-13c0-5 2-10 6-13l112-88c3-2 6-3 10-3c2 0 5 1 7 2c6 2 9 8 9 14l0 176c0 6-3 12-9 14c-6 3-12 2-17-1z m-6-156l-70 55l70 55z m-304 143c-9 0-16-7-16-16l0-144c0-9 7-16 16-16c9 0 16 7 16 16l0 144c0 9-7 16-16 16z"/>
<glyph unicode="&#57410;" d="M256 512c-68 0-133-27-181-75c-48-48-75-113-75-181c0-68 27-133 75-181c48-48 113-75 181-75c68 0 133 27 181 75c48 48 75 113 75 181c0 68-27 133-75 181c-48 48-113 75-181 75z m158-414c-42-43-98-66-158-66c-60 0-116 23-158 66c-43 42-66 98-66 158c0 60 23 116 66 158c42 43 98 66 158 66c60 0 116-23 158-66c43-42 66-98 66-158c0-60-23-116-66-158z m-145 264c-6 8-20 8-26 0l-88-112c-3-5-4-11-1-17c2-5 8-9 14-9l176 0c6 0 12 4 14 9c3 6 2 12-1 17z m-68-106l55 70l55-70z m135-48l-160 0c-9 0-16-7-16-16c0-9 7-16 16-16l160 0c9 0 16 7 16 16c0 9-7 16-16 16z"/>
<glyph unicode="&#57411;" d="M256 512c-68 0-133-27-181-75c-48-48-75-113-75-181c0-68 27-133 75-181c48-48 113-75 181-75c68 0 133 27 181 75c48 48 75 113 75 181c0 68-27 133-75 181c-48 48-113 75-181 75z m158-414c-42-43-98-66-158-66c-60 0-116 23-158 66c-43 42-66 98-66 158c0 60 23 116 66 158c42 43 98 66 158 66c60 0 116-23 158-66c43-42 66-98 66-158c0-60-23-116-66-158z m-4 171l-112 88c-5 3-12 4-17 1c-5-2-9-8-9-14l0-176c0-6 4-12 9-14c2-1 5-2 7-2c4 0 7 1 10 3l112 88c4 3 6 8 6 13c0 5-2 10-6 13z m-106-68l0 110l70-55z m-54 68l-112 88c-5 3-12 4-17 1c-5-2-9-8-9-14l0-176c0-6 4-12 9-14c2-1 5-2 7-2c4 0 7 1 10 3l112 88c4 3 6 8 6 13c0 5-2 10-6 13z m-106-68l0 110l70-55z"/>
<glyph unicode="&#57412;" d="M256 512c-68 0-133-27-181-75c-48-48-75-113-75-181c0-68 27-133 75-181c48-48 113-75 181-75c68 0 133 27 181 75c48 48 75 113 75 181c0 68-27 133-75 181c-48 48-113 75-181 75z m158-414c-42-43-98-66-158-66c-60 0-116 23-158 66c-43 42-66 98-66 158c0 60 23 116 66 158c42 43 98 66 158 66c60 0 116-23 158-66c43-42 66-98 66-158c0-60-23-116-66-158z m-36 171l-112 88c-5 3-11 4-17 1c-5-2-9-8-9-14l0-176c0-6 4-12 9-14c2-1 5-2 7-2c4 0 7 1 10 3l112 88c4 3 6 8 6 13c0 5-2 10-6 13z m-106-68l0 110l70-55z m-54 68l-112 88c-5 3-12 4-17 1c-5-2-9-8-9-14l0-176c0-6 4-12 9-14c2-1 5-2 7-2c4 0 7 1 10 3l112 88c4 3 6 8 6 13c0 5-2 10-6 13z m-106-68l0 110l70-55z m288 127l0-144c0-9 7-16 16-16c9 0 16 7 16 16l0 144c0 9-7 16-16 16c-9 0-16-7-16-16z"/>
<glyph unicode="&#57413;" d="M192 344c-9 0-16-7-16-16l0-144c0-9 7-16 16-16c9 0 16 7 16 16l0 144c0 9-7 16-16 16z m128 0c-9 0-16-7-16-16l0-144c0-9 7-16 16-16c9 0 16 7 16 16l0 144c0 9-7 16-16 16z m-64 168c-68 0-133-27-181-75c-48-48-75-113-75-181c0-68 27-133 75-181c48-48 113-75 181-75c68 0 133 27 181 75c48 48 75 113 75 181c0 68-27 133-75 181c-48 48-113 75-181 75z m158-414c-42-43-98-66-158-66c-60 0-116 23-158 66c-43 42-66 98-66 158c0 60 23 116 66 158c42 43 98 66 158 66c60 0 116-23 158-66c43-42 66-98 66-158c0-60-23-116-66-158z"/>
<glyph unicode="&#57414;" d="M256 512c-68 0-133-27-181-75c-48-48-75-113-75-181c0-68 27-133 75-181c48-48 113-75 181-75c68 0 133 27 181 75c48 48 75 113 75 181c0 68-27 133-75 181c-48 48-113 75-181 75z m158-414c-42-43-98-66-158-66c-60 0-116 23-158 66c-43 42-66 98-66 158c0 60 23 116 66 158c42 43 98 66 158 66c60 0 116-23 158-66c43-42 66-98 66-158c0-60-23-116-66-158z m-76 171l-112 88c-5 3-11 4-17 1c-6-2-9-8-9-14l0-176c0-6 3-12 9-14c2-1 5-2 7-2c4 0 7 1 10 3l112 88c4 3 6 8 6 13c0 5-2 10-6 13z m-106-68l0 110l70-55z"/>
<glyph unicode="&#57415;" d="M511 389c0 0 0 1 0 1c0 1-1 1-1 2c0 0 0 0-1 1c0 1-1 2-2 2l-64 64c-6 7-16 7-22 0c-7-6-7-16 0-22l36-37l-80 0l-256-256l-105 0c-9 0-16-7-16-16c0-9 7-16 16-16l119 0l256 256l66 0l-36-37c-7-6-7-16 0-22c3-3 7-5 11-5c4 0 8 2 11 5l64 64c1 0 2 1 2 2c1 1 1 1 1 1c0 1 1 1 1 2c0 0 0 1 0 1c0 1 1 1 1 2c0 2 0 4 0 6c0 1-1 1-1 2z m0-267c0 0 0 1 0 1c0 1 1 1 1 2c0 2 0 4 0 6c0 1-1 1-1 2c0 0 0 1 0 1c0 1-1 1-1 2c0 0 0 0-1 1c0 1-1 2-2 2l-64 64c-6 7-16 7-22 0c-7-6-7-16 0-22l36-37l-66 0l-76 75c-6 7-16 7-22 0c-7-6-7-16 0-22l84-85l80 0l-36-37c-7-6-7-16 0-22c3-3 7-5 11-5c4 0 8 2 11 5l64 64c1 0 2 1 2 2c1 1 1 1 1 1c0 1 1 1 1 2z m-495 246l105 0l76-75c3-3 7-5 11-5c4 0 8 2 11 5c7 6 7 16 0 22l-84 85l-119 0c-9 0-16-7-16-16c0-9 7-16 16-16z"/>
<glyph unicode="&#57416;" d="M432 144l-336 0l0 137l37-36c3-3 7-5 11-5c4 0 8 2 11 5c7 6 7 16 0 22l-64 64c0 1-1 2-2 2c-1 1-1 1-1 1c-1 0-1 1-2 1c0 0-1 0-1 0c-1 0-1 1-2 1c-2 0-4 0-6 0c-1 0-1-1-2-1c0 0-1 0-1 0c-1 0-1-1-2-1c0 0 0 0-1-1c-1 0-2-1-2-2l-64-64c-7-6-7-16 0-22c6-7 16-7 22 0l37 36l0-153c0-9 7-16 16-16l352 0c9 0 16 7 16 16c0 9-7 16-16 16z m53 123l-37-36l0 153c0 9-7 16-16 16l-352 0c-9 0-16-7-16-16c0-9 7-16 16-16l336 0l0-137l-37 36c-6 7-16 7-22 0c-7-6-7-16 0-22l64-64c0-1 1-2 2-2c1-1 1-1 1-1c1 0 1-1 2-1c0 0 1 0 1 0c1 0 1-1 2-1c1 0 2 0 3 0c1 0 2 0 3 0c1 0 1 1 2 1c0 0 1 0 1 0c1 0 1 1 2 1c0 0 0 0 1 1c1 0 2 1 2 2l64 64c7 6 7 16 0 22c-6 7-16 7-22 0z"/>
<glyph unicode="&#57417;" d="M256 512c-68 0-133-27-181-75c-48-48-75-113-75-181c0-68 27-133 75-181c48-48 113-75 181-75c68 0 133 27 181 75c48 48 75 113 75 181c0 68-27 133-75 181c-48 48-113 75-181 75z m158-414c-42-43-98-66-158-66c-60 0-116 23-158 66c-43 42-66 98-66 158c0 60 23 116 66 158c42 43 98 66 158 66c60 0 116-23 158-66c43-42 66-98 66-158c0-60-23-116-66-158z m-78 254l-160 0c-9 0-16-7-16-16l0-160c0-9 7-16 16-16l160 0c9 0 16 7 16 16l0 160c0 9-7 16-16 16z m-16-160l-128 0l0 128l128 0z"/>
<glyph unicode="&#57418;" d="M144 0c44 0 80 36 80 80l0 227l192 41l0-156c-13 10-30 16-48 16c-44 0-80-36-80-80c0-44 36-80 80-80c44 0 80 36 80 80l0 240c0 0 0 0 0 0l0 128c0 5-2 9-6 12c-4 3-9 5-13 4l-224-48c-8-2-13-8-13-16l0-128c0 0 0 0 0 0l0-176c-13 10-30 16-48 16c-44 0-80-36-80-80c0-44 36-80 80-80z m224 80c-26 0-48 22-48 48c0 26 22 48 48 48c26 0 48-22 48-48c0-26-22-48-48-48z m48 396l0-95l-192-41l0 95z m-272-348c26 0 48-22 48-48c0-26-22-48-48-48c-26 0-48 22-48 48c0 26 22 48 48 48z"/>
<glyph unicode="&#57419;" d="M176 0c44 0 80 36 80 80l0 228l149 45c6 2 11 8 11 15l0 128c0 5-2 10-6 13c-5 3-10 4-15 2l-160-48c-6-2-11-8-11-15l0-128c0 0 0 0 0 0l0-176c-13 10-30 16-48 16c-44 0-80-36-80-80c0-44 36-80 80-80z m80 436l128 38l0-94l-128-38z m-80-308c26 0 48-22 48-48c0-26-22-48-48-48c-26 0-48 22-48 48c0 26 22 48 48 48z"/>
<glyph unicode="&#57420;" d="M504 334c-5 3-11 3-16 0l-112-66l0 52c0 9-7 16-16 16l-41 0c16 17 25 39 25 64c0 53-43 96-96 96c-45 0-84-32-93-74c-10 6-22 10-35 10c-35 0-64-29-64-64c0-12 3-23 9-32l-49 0c-9 0-16-7-16-16l0-192c0-7 5-14 12-16l344-80c2 0 3 0 4 0c4 0 7 1 10 3c4 4 6 8 6 13l0 52l112-66c5-3 11-3 16 0c5 3 8 8 8 14l0 272c0 6-3 11-8 14z m-256 130c35 0 64-29 64-64c0-35-29-64-64-64c-35 0-64 29-64 64c0 35 29 64 64 64z m-71-128l-2 0c1 0 1 1 1 1c0 0 0-1 1-1z m-89 32c0 18 14 32 32 32c18 0 32-14 32-32c0-18-14-32-32-32c-18 0-32 14-32 32z m392-292l-112 66c-5 3-11 3-16 0c-5-3-8-8-8-14l0-60l-312 73l0 163l312 0l0-64c0-6 3-11 8-14c5-3 11-3 16 0l112 66z"/>
<glyph unicode="&#57421;" d="M425 59l18-36c4-9 12-15 21-15c9 0 17 6 21 15l18 36c5 10 9 26 9 37l0 368c0 18-14 32-32 32l-32 0c-18 0-32-14-32-32l-16 0c-18 0-32-14-32-32l0-64c0-9 7-16 16-16c9 0 16 7 16 16l0 64l16 0l0-336c0-11 4-27 9-37z m23 405l32 0l0-368c0-6-3-18-5-23l-11-21l-11 21c-2 5-5 17-5 23z m-416-448l288 0c18 0 32 14 32 32l0 320c0 13-7 29-16 39l-73 73c-10 9-26 16-39 16l-192 0c-18 0-32-14-32-32l0-416c0-18 14-32 32-32z m265 384l-41 0l0 41z m-265 64l192 0l0-64c0-18 14-32 32-32l64 0l0-320l-288 0z m48-80l88 0c9 0 16 7 16 16c0 9-7 16-16 16l-88 0c-9 0-16-7-16-16c0-9 7-16 16-16z m192-48l-192 0c-9 0-16-7-16-16c0-9 7-16 16-16l192 0c9 0 16 7 16 16c0 9-7 16-16 16z m0-64l-192 0c-9 0-16-7-16-16c0-9 7-16 16-16l192 0c9 0 16 7 16 16c0 9-7 16-16 16z m0-64l-192 0c-9 0-16-7-16-16c0-9 7-16 16-16l192 0c9 0 16 7 16 16c0 9-7 16-16 16z m0-64l-192 0c-9 0-16-7-16-16c0-9 7-16 16-16l192 0c9 0 16 7 16 16c0 9-7 16-16 16z"/>
<glyph unicode="&#57422;" d="M0 48c0-18 14-32 32-32l288 0c18 0 32 14 32 32l0 320c0 13-7 29-16 39l-73 73c-10 9-26 16-39 16l-192 0c-18 0-32-14-32-32z m297 352l-41 0l0 41z m-265 64l192 0l0-64c0-18 14-32 32-32l64 0l0-320l-288 0z m448 32l-32 0c-18 0-32-14-32-32l0-368c0-11 4-27 9-37l18-36c4-9 12-15 21-15c9 0 17 6 21 15l18 36c5 10 9 26 9 37l0 368c0 18-14 32-32 32z m0-32l0-48l-32 0l0 48z m-5-391l-11-21l-11 21c-2 5-5 17-5 23l0 288l32 0l0-288c0-6-3-18-5-23z m-395 311l88 0c9 0 16 7 16 16c0 9-7 16-16 16l-88 0c-9 0-16-7-16-16c0-9 7-16 16-16z m192-48l-192 0c-9 0-16-7-16-16c0-9 7-16 16-16l192 0c9 0 16 7 16 16c0 9-7 16-16 16z m0-64l-192 0c-9 0-16-7-16-16c0-9 7-16 16-16l192 0c9 0 16 7 16 16c0 9-7 16-16 16z m0-64l-192 0c-9 0-16-7-16-16c0-9 7-16 16-16l192 0c9 0 16 7 16 16c0 9-7 16-16 16z m0-64l-192 0c-9 0-16-7-16-16c0-9 7-16 16-16l192 0c9 0 16 7 16 16c0 9-7 16-16 16z"/>
<glyph unicode="&#57423;" d="M416 0c18 0 32 14 32 32l0 448c0 18-14 32-32 32l-208 0c-13 0-29-7-39-16l-89-89c-9-10-16-26-16-39l0-336c0-18 14-32 32-32z m0 480l0-448l-320 0l0 336l80 0c18 0 32 14 32 32l0 80z m-240-23l0-57l-57 0z m80-73l96 0c9 0 16 7 16 16c0 9-7 16-16 16l-96 0c-9 0-16-7-16-16c0-9 7-16 16-16z m96-48l-192 0c-9 0-16-7-16-16c0-9 7-16 16-16l192 0c9 0 16 7 16 16c0 9-7 16-16 16z m0-80l-192 0c-9 0-16-7-16-16c0-9 7-16 16-16l192 0c9 0 16 7 16 16c0 9-7 16-16 16z m0-80l-192 0c-9 0-16-7-16-16c0-9 7-16 16-16l192 0c9 0 16 7 16 16c0 9-7 16-16 16z m0-80l-192 0c-9 0-16-7-16-16c0-9 7-16 16-16l192 0c9 0 16 7 16 16c0 9-7 16-16 16z"/>
<glyph unicode="&#57424;" d="M280 0c18 0 32 14 32 32l0 448c0 18-14 32-32 32l-96 0c-18 0-32-14-32-32l0-448c0-18 14-32 32-32z m-96 480l96 0l0-48l-48 0c-9 0-16-7-16-16c0-9 7-16 16-16l48 0l0-48l-8 0c-9 0-16-7-16-16c0-9 7-16 16-16l8 0l0-48l-48 0c-9 0-16-7-16-16c0-9 7-16 16-16l48 0l0-48l-8 0c-9 0-16-7-16-16c0-9 7-16 16-16l8 0l0-48l-48 0c-9 0-16-7-16-16c0-9 7-16 16-16l48 0l0-48l-96 0z m-112-472c9 0 17 6 21 15l18 36c5 10 9 26 9 37l0 368c0 18-14 32-32 32l-32 0c-18 0-32-14-32-32l0-368c0-11 4-27 9-37l18-36c4-9 12-15 21-15z m11 65l-11-21l-11 21c-2 5-5 17-5 23l0 288l32 0l0-288c0-6-3-18-5-23z m5 391l0-48l-32 0l0 48z m343-11l-18 36c-4 9-12 15-21 15c-9 0-17-6-21-15l-18-36c-5-10-9-26-9-37l0-368c0-18 14-32 32-32l32 0c18 0 32 14 32 32l16 0c18 0 32 14 32 32l0 64c0 9-7 16-16 16c-9 0-16-7-16-16l0-64l-16 0l0 336c0 11-4 27-9 37z m-23-405l-32 0l0 368c0 6 3 18 5 23l11 21l11-21c2-5 5-17 5-23z"/>
<glyph unicode="&#57425;" d="M25 5c4 0 8 1 12 3l115 51c10 4 23 13 31 21l313 313c6 6 9 14 9 23c0 9-3 17-9 23l-57 57c-6 6-14 9-23 9c-9 0-17-3-23-9l-321-321c-8-8-17-22-21-32l-44-106c-4-12-1-19 1-23c4-6 10-9 17-9z m135 98c0 0 0 0 0 0l-57 57l265 265l57-57z m256 370l57-57l-25-25l-57 57z m-335-342c0 1 1 3 2 4l49-50l-86-38z"/>
<glyph unicode="&#57426;" d="M21 504c-10 0-21-7-21-24l0-448c0-18 14-32 32-32l448 0c16 0 21 9 23 13c1 4 4 15-7 26l-457 457c-7 7-14 8-18 8z m11-472l0 32l32 0c9 0 16 7 16 16c0 9-7 16-16 16l-32 0l0 32l16 0c9 0 16 7 16 16c0 9-7 16-16 16l-16 0l0 32l32 0c9 0 16 7 16 16c0 9-7 16-16 16l-32 0l0 32l16 0c9 0 16 7 16 16c0 9-7 16-16 16l-16 0l0 32l32 0c9 0 16 7 16 16c0 9-7 16-16 16l-32 0l0 104l425-424z m96 32l192 0c16 0 21 9 23 13c1 4 4 15-7 26l-201 201c-7 7-14 8-18 8c-10 0-21-7-21-24l0-192c0-18 14-32 32-32z m0 201l169-169l-169 0z m316-124l33-9c2 0 5-1 7-1c0 0 0 0 0 0c8 0 15 4 19 10c5 6 7 14 5 22l-9 33c-2 12-11 26-19 35l-265 265c-6 6-14 9-23 9c-9 0-17-3-23-9l-25-25c-12-13-12-33 0-46l265-265c9-8 23-17 35-19z m24 48l6-23l-23 6c-5 1-15 6-19 11l-217 217l25 25l217-217c5-4 10-14 11-19z m-276 284l25-25l-25-25l-25 25z"/>
<glyph unicode="&#57427;" d="M256 512c-68 0-133-27-181-75c-48-48-75-113-75-181c0-68 27-133 75-181c48-48 113-75 181-75c68 0 133 27 181 75c48 48 75 113 75 181c0 68-27 133-75 181c-48 48-113 75-181 75z m158-414c-42-43-98-66-158-66c-60 0-116 23-158 66c-43 42-66 98-66 158c0 60 23 116 66 158c42 43 98 66 158 66c60 0 116-23 158-66c43-42 66-98 66-158c0-60-23-116-66-158z m-14 174l-128 0l0 128c0 9-7 16-16 16c-9 0-16-7-16-16l0-128l-128 0c-9 0-16-7-16-16c0-9 7-16 16-16l128 0l0-128c0-9 7-16 16-16c9 0 16 7 16 16l0 128l128 0c9 0 16 7 16 16c0 9-7 16-16 16z"/>
<glyph unicode="&#57428;" d="M16 80l480 0c9 0 16 7 16 16l0 48c0 9-7 16-16 16l-32 0l0 256c0 9-7 16-16 16l-384 0c-9 0-16-7-16-16l0-256l-32 0c-9 0-16-7-16-16l0-48c0-9 7-16 16-16z m64 320l352 0l0-240l-352 0z m-48-272l448 0l0-16l-448 0z m213 251c-3-3-5-7-5-11c0-4 2-8 5-11c3-3 7-5 11-5c4 0 8 2 11 5c3 3 5 7 5 11c0 4-2 8-5 11c-6 6-16 6-22 0z"/>
<glyph unicode="&#57429;" d="M197 5c3-3 7-5 11-5c4 0 8 2 11 5l288 288c3 3 5 7 5 11l0 192c0 9-7 16-16 16l-192 0c-4 0-8-2-11-5l-288-288c-7-6-7-16 0-22z m114 475l169 0l0-169l-272-272l-169 169z m65-168c35 0 64 29 64 64c0 35-29 64-64 64c-35 0-64-29-64-64c0-35 29-64 64-64z m0 96c18 0 32-14 32-32c0-18-14-32-32-32c-18 0-32 14-32 32c0 18 14 32 32 32z"/>
<glyph unicode="&#57430;" d="M16 80l96 0l0-64c0-9 7-16 16-16l256 0c9 0 16 7 16 16l0 64l96 0c9 0 16 7 16 16l0 256c0 9-7 16-16 16l-96 0l0 128c0 9-7 16-16 16l-256 0c-9 0-16-7-16-16l0-128l-96 0c-9 0-16-7-16-16l0-256c0-9 7-16 16-16z m352-48l-224 0l0 160l224 0z m-224 448l224 0l0-112l-224 0z m-112-144l448 0l0-224l-80 0l0 96c0 9-7 16-16 16l-256 0c-9 0-16-7-16-16l0-96l-80 0z m59-29c-6 6-16 6-22 0c-3-3-5-7-5-11c0-4 2-8 5-11c3-3 7-5 11-5c4 0 8 2 11 5c3 3 5 7 5 11c0 4-2 8-5 11z m37-27c4 0 8 2 11 5c3 3 5 7 5 11c0 4-2 8-5 11c-6 6-16 6-22 0c-3-3-5-7-5-11c0-4 2-8 5-11c3-3 7-5 11-5z m208-120l-160 0c-9 0-16-7-16-16c0-9 7-16 16-16l160 0c9 0 16 7 16 16c0 9-7 16-16 16z m0-64l-160 0c-9 0-16-7-16-16c0-9 7-16 16-16l160 0c9 0 16 7 16 16c0 9-7 16-16 16z"/>
<glyph unicode="&#57431;" d="M256 176c66 0 120 68 120 152c0 84-54 152-120 152c-66 0-120-68-120-152c0-84 54-152 120-152z m0 272c48 0 88-55 88-120c0-65-40-120-88-120c-48 0-88 55-88 120c0 65 40 120 88 120z m-223-299l-32-96c-2-5-1-10 2-14c3-5 8-7 13-7l480 0c5 0 10 2 13 7c3 4 4 9 2 14l-32 96c-1 5-6 9-11 10l-112 32c-3 1-8 1-11-1l-89-44l-89 44c-3 2-8 2-11 1l-112-32c-5-1-10-5-11-10z m125 10l91-45c4-3 10-3 14 0l91 45l97-28l23-67l-436 0l23 67z"/>
<glyph unicode="&#57432;" d="M256 176c69 0 128 70 128 152c0 82-59 152-128 152c-69 0-128-70-128-152c0-82 59-152 128-152z m0 272c52 0 96-55 96-120c0-65-44-120-96-120c-52 0-96 55-96 120c0 65 44 120 96 120z m-223-299l-32-96c-2-5-1-10 2-14c3-5 8-7 13-7l480 0c5 0 10 2 13 7c3 4 4 9 2 14l-32 96c-1 5-6 9-11 10l-112 32c-3 1-8 1-11-1l-89-44l-89 44c-3 2-8 2-11 1l-112-32c-5-1-10-5-11-10z m125 10l91-45c4-3 10-3 14 0l91 45l97-28l23-67l-436 0l23 67z m338 305l-32 0l0 32c0 9-7 16-16 16c-9 0-16-7-16-16l0-32l-32 0c-9 0-16-7-16-16c0-9 7-16 16-16l32 0l0-32c0-9 7-16 16-16c9 0 16 7 16 16l0 32l32 0c9 0 16 7 16 16c0 9-7 16-16 16z"/>
<glyph unicode="&#57433;" d="M256 176c69 0 128 70 128 152c0 82-59 152-128 152c-69 0-128-70-128-152c0-82 59-152 128-152z m0 272c52 0 96-55 96-120c0-65-44-120-96-120c-52 0-96 55-96 120c0 65 44 120 96 120z m-223-299l-32-96c-2-5-1-10 2-14c3-5 8-7 13-7l480 0c5 0 10 2 13 7c3 4 4 9 2 14l-32 96c-1 5-6 9-11 10l-112 32c-3 1-8 1-11-1l-89-44l-89 44c-3 2-8 2-11 1l-112-32c-5-1-10-5-11-10z m125 10l91-45c4-3 10-3 14 0l91 45l97-28l23-67l-436 0l23 67z m231 230c3-3 7-5 11-5c4 0 8 2 11 5l29 28l29-28c3-3 7-5 11-5c4 0 8 2 11 5c7 6 7 16 0 22l-28 29l28 29c7 6 7 16 0 22c-6 7-16 7-22 0l-29-28l-29 28c-6 7-16 7-22 0c-7-6-7-16 0-22l28-29l-28-29c-7-6-7-16 0-22z"/>
<glyph unicode="&#57434;" d="M187 155c-6 7-16 7-22 0l-48-48c-7-6-7-16 0-22c3-3 7-5 11-5c4 0 8 2 11 5l48 48c7 6 7 16 0 22z m186 0l-64-64c-7-6-7-16 0-22c3-3 7-5 11-5c4 0 8 2 11 5l64 64c7 6 7 16 0 22c-6 7-16 7-22 0z m-104 0l-112-112c-7-6-7-16 0-22c3-3 7-5 11-5c4 0 8 2 11 5l112 112c7 6 7 16 0 22c-6 7-16 7-22 0z m178 180c-7 90-83 161-175 161c-82 0-152-53-173-128l-3 0c-53 0-96-43-96-96c0-53 43-96 96-96l336 0c44 0 80 36 80 80c0 39-28 71-65 79z m-15-127l-336 0c-35 0-64 29-64 64c0 35 29 64 64 64l16 0c8 0 14 5 16 13c12 67 73 115 144 115c79 0 144-65 144-144c0-9 7-16 16-16c26 0 48-22 48-48c0-26-22-48-48-48z"/>
<glyph unicode="&#57435;" d="M240 496c0-9 7-16 16-16c60 0 116-23 158-66c43-42 66-98 66-158c0-59-23-115-64-157l0 45c0 9-7 16-16 16c-9 0-16-7-16-16l0-96l96 0c9 0 16 7 16 16c0 9-7 16-16 16l-38 0c45 48 70 110 70 176c0 68-27 133-75 181c-48 48-113 75-181 75c-9 0-16-7-16-16z m-165-421c48-48 113-75 181-75c9 0 16 7 16 16c0 9-7 16-16 16c-60 0-116 23-158 66c-43 42-66 98-66 158c0 59 23 115 64 157l0-45c0-9 7-16 16-16c9 0 16 7 16 16l0 96l-96 0c-9 0-16-7-16-16c0-9 7-16 16-16l38 0c-45-48-70-110-70-176c0-68 27-133 75-181z"/>
<glyph unicode="&#57436;" d="M363 235c-6 7-16 7-22 0l-13-12l-25 25l56 56l25 0c63 0 96 39 96 112c0 6-3 11-8 14c-4 3-10 3-15 0l-54-27l-16 16l27 54c3 5 3 11 0 15c-3 5-8 8-14 8c-73 0-112-33-112-96l0-25l-56-56l-89 89l12 13c4 3 5 8 5 13c-1 5-4 9-8 12l-80 48c-6 4-14 3-19-3l-16-16c-6-5-6-13-3-19l48-80c3-4 7-7 12-8c1 0 1 0 2 0c4 0 8 2 11 5l13 12l89-89l-188-189c-2-1-3-4-4-6l-16-48c-2-6-1-12 4-16l16-16c3-3 7-5 11-5c2 0 3 0 5 1l48 16c2 1 5 2 6 4l189 188l25-25l-12-13c-7-6-7-16 0-22l144-144c3-3 7-5 11-5c4 0 8 2 11 5l48 48c7 6 7 16 0 22z m-264 175l-28 47l47-28z m-28-348l-35-12l-2 2l12 35l269 270c3 3 5 7 5 11l0 32c0 27 7 55 53 62l-19-39c-3-6-2-13 3-18l32-32c5-5 12-6 18-3l39 19c-7-46-35-53-62-53l-32 0c-4 0-8-2-11-5z m377-7l-121 121l25 25l121-121z"/>
<glyph unicode="&#57437;" d="M16 192l52 0l10-28l-41-41c-7-6-7-16 0-22l64-64c6-7 16-7 22 0l41 41l28-10l0-52c0-9 7-16 16-16l96 0c9 0 16 7 16 16l0 52l28 10l41-41c6-7 16-7 22 0l64 64c7 6 7 16 0 22l-41 41l10 28l52 0c9 0 16 7 16 16l0 96c0 9-7 16-16 16l-52 0l-10 28l41 41c7 6 7 16 0 22l-64 64c-6 7-16 7-22 0l-41-41l-28 10l0 52c0 9-7 16-16 16l-96 0c-9 0-16-7-16-16l0-52l-28-10l-41 41c-6 7-16 7-22 0l-64-64c-7-6-7-16 0-22l41-41l-10-28l-52 0c-9 0-16-7-16-16l0-96c0-9 7-16 16-16z m16 96l48 0c7 0 13 4 15 11l16 48c2 6 1 12-4 16l-36 37l41 41l37-36c4-5 10-6 16-4l48 16c7 2 11 8 11 15l0 48l64 0l0-48c0-7 4-13 11-15l48-16c6-2 12-1 16 4l37 36l41-41l-36-37c-5-4-6-10-4-16l16-48c2-7 8-11 15-11l48 0l0-64l-48 0c-7 0-13-4-15-11l-16-48c-2-6-1-12 4-16l36-37l-41-41l-37 36c-4 5-10 6-16 4l-48-16c-7-2-11-8-11-15l0-48l-64 0l0 48c0 7-4 13-11 15l-48 16c-6 2-12 1-16-4l-37-36l-41 41l36 37c5 4 6 10 4 16l-16 48c-2 7-8 11-15 11l-48 0z m224-96c35 0 64 29 64 64c0 35-29 64-64 64c-35 0-64-29-64-64c0-35 29-64 64-64z m0 96c18 0 32-14 32-32c0-18-14-32-32-32c-18 0-32 14-32 32c0 18 14 32 32 32z"/>
<glyph unicode="&#57438;" d="M96 80c31 0 58 15 76 38l133-49c6-39 39-69 79-69c44 0 80 36 80 80c0 44-36 80-80 80c-37 0-67-25-77-58l-120 44c3 9 5 20 5 30c0 20-6 39-17 54l148 89c20-19 47-31 77-31c62 0 112 50 112 112c0 62-50 112-112 112c-62 0-112-50-112-112c0-20 5-39 15-56l-151-90c-16 11-35 18-56 18c-53 0-96-43-96-96c0-53 43-96 96-96z m288 48c26 0 48-22 48-48c0-26-22-48-48-48c-26 0-48 22-48 48c0 26 22 48 48 48z m16 352c44 0 80-36 80-80c0-44-36-80-80-80c-44 0-80 36-80 80c0 44 36 80 80 80z m-304-240c35 0 64-29 64-64c0-35-29-64-64-64c-35 0-64 29-64 64c0 35 29 64 64 64z"/>
<glyph unicode="&#57439;" d="M248 0c4 0 8 2 11 5l136 136c3 3 5 7 5 11l0 344c0 9-7 16-16 16l-272 0c-9 0-16-7-16-16l0-344c0-4 2-8 5-11l136-136c3-3 7-5 11-5z m-120 480l240 0l0-321l-120-120l-120 120z"/>
<glyph unicode="&#57440;" d="M141 109c3-3 7-5 11-5l344 0c9 0 16 7 16 16l0 272c0 9-7 16-16 16l-344 0c-4 0-8-2-11-5l-136-136c-7-6-7-16 0-22z m18 267l321 0l0-240l-321 0l-120 120z"/>
<glyph unicode="&#57441;" d="M16 104l344 0c4 0 8 2 11 5l136 136c7 6 7 16 0 22l-136 136c-3 3-7 5-11 5l-344 0c-9 0-16-7-16-16l0-272c0-9 7-16 16-16z m16 272l321 0l120-120l-120-120l-321 0z"/>
<glyph unicode="&#57442;" d="M384 0c9 0 16 7 16 16l0 344c0 4-2 8-5 11l-136 136c-6 7-16 7-22 0l-136-136c-3-3-5-7-5-11l0-344c0-9 7-16 16-16z m-256 353l120 120l120-120l0-321l-240 0z"/>
<glyph unicode="&#57443;" d="M0 432c0-9 7-16 16-16l49 0l31-353c0 0 0 0 0 0c0-35 29-63 64-63c30 0 55 20 62 48l68 0c7-28 32-48 62-48c35 0 64 29 64 64c0 35-29 64-64 64c-30 0-55-20-62-48l-68 0c-7 28-32 48-62 48c-14 0-26-4-37-12l-4 52c0 0 1 0 1 0c0 0 1 0 1 0l328 16c7 0 13 5 14 12l48 168c2 4 1 10-2 14c-3 4-8 6-13 6l-396 0l-4 49c-1 9-8 15-16 15l-64 0c-9 0-16-7-16-16z m352-336c18 0 32-14 32-32c0-18-14-32-32-32c-18 0-32 14-32 32c0 18 14 32 32 32z m-192 0c18 0 32-14 32-32c0-18-14-32-32-32c-18 0-32 14-32 32c0 18 14 32 32 32z m315 256l-39-137l-317-15c-1 0-2 0-3 0l-13 152z"/>
<glyph unicode="&#57444;" d="M0 432c0-9 7-16 16-16l49 0l31-353c0 0 0 0 0 0c0-35 29-63 64-63c30 0 55 20 62 48l68 0c7-28 32-48 62-48c35 0 64 29 64 64c0 35-29 64-64 64c-30 0-55-20-62-48l-68 0c-7 28-32 48-62 48c-14 0-26-4-37-12l-4 52c0 0 1 0 1 0c0 0 1 0 1 0l328 16c7 0 13 5 14 12l48 168c2 4 1 10-2 14c-3 4-8 6-13 6l-52 0l-29 100c-2 7-8 12-15 12l-112 0c-4 0-8-2-11-5l-44-43l-73 0c-7 0-14-5-16-12l-12-52l-32 0l-4 49c-1 9-8 15-16 15l-64 0c-9 0-16-7-16-16z m352-336c18 0 32-14 32-32c0-18-14-32-32-32c-18 0-32 14-32 32c0 18 14 32 32 32z m-192 0c18 0 32-14 32-32c0-18-14-32-32-32c-18 0-32 14-32 32c0 18 14 32 32 32z m135 368l93 0l23-80l-143 0l-10 43z m-123-48l56 0l8-32l-72 0z m260-64c0 0 0 0 0 0c0 0 0 0 0 0l43 0l-39-137l-317-15c-1 0-2 0-3 0l-13 152z"/>
<glyph unicode="&#57445;" d="M496 512l-480 0c-9 0-16-7-16-16l0-480c0-9 7-16 16-16l480 0c9 0 16 7 16 16l0 480c0 9-7 16-16 16z m-16-480l-448 0l0 448l448 0z m-400 352l32 0l0-304c0-9 7-16 16-16c9 0 16 7 16 16l0 304l32 0c9 0 16 7 16 16c0 9-7 16-16 16l-32 0l0 16c0 9-7 16-16 16c-9 0-16-7-16-16l0-16l-32 0c-9 0-16-7-16-16c0-9 7-16 16-16z m256-288l32 0l0-16c0-9 7-16 16-16c9 0 16 7 16 16l0 16l32 0c9 0 16 7 16 16c0 9-7 16-16 16l-32 0l0 304c0 9-7 16-16 16c-9 0-16-7-16-16l0-304l-32 0c-9 0-16-7-16-16c0-9 7-16 16-16z m-128 144l32 0l0-160c0-9 7-16 16-16c9 0 16 7 16 16l0 160l32 0c9 0 16 7 16 16c0 9-7 16-16 16l-32 0l0 160c0 9-7 16-16 16c-9 0-16-7-16-16l0-160l-32 0c-9 0-16-7-16-16c0-9 7-16 16-16z"/>
<glyph unicode="&#57446;" d="M384 512l-256 0c-9 0-16-7-16-16l0-480c0-9 7-16 16-16l256 0c9 0 16 7 16 16l0 480c0 9-7 16-16 16z m-16-480l-224 0l0 448l224 0z m-104 64l-16 0c-9 0-16-7-16-16c0-9 7-16 16-16l16 0c9 0 16 7 16 16c0 9-7 16-16 16z m-64 320l112 0c9 0 16 7 16 16c0 9-7 16-16 16l-112 0c-9 0-16-7-16-16c0-9 7-16 16-16z"/>
<glyph unicode="&#57447;" d="M494 480l-238-32l-238 32c-4 0-9-1-13-4c-3-3-5-7-5-12l0-384c0-8 6-15 14-16l240-32c1 0 1 0 2 0c1 0 1 0 2 0l240 32c8 1 14 8 14 16l0 384c0 5-2 9-5 12c-4 3-9 4-13 4z m-462-34l208-28l0-352l-208 28z m448-352l-208-28l0 352l208 28z m-402 274l128-16c1 0 1 0 2 0c8 0 15 6 16 14c1 9-5 17-14 18l-128 16c-9 1-17-5-18-14c-1-9 5-17 14-18z m132-64l-128 16c-9 1-17-5-18-14c-1-9 5-17 14-18l128-16c1 0 1 0 2 0c8 0 15 6 16 14c1 9-5 17-14 18z m0-80l-128 16c-9 1-17-5-18-14c-1-9 5-17 14-18l128-16c1 0 1 0 2 0c8 0 15 6 16 14c1 9-5 17-14 18z m0-80l-128 16c-9 1-17-5-18-14c-1-9 5-17 14-18l128-16c1 0 1 0 2 0c8 0 15 6 16 14c1 9-5 17-14 18z m94 208c1 0 1 0 2 0l128 16c9 1 15 9 14 18c-1 9-9 15-18 14l-128-16c-9-1-15-9-14-18c1-8 8-14 16-14z m0-80c1 0 1 0 2 0l128 16c9 1 15 9 14 18c-1 9-9 15-18 14l-128-16c-9-1-15-9-14-18c1-8 8-14 16-14z m0-80c1 0 1 0 2 0l128 16c9 1 15 9 14 18c-1 9-9 15-18 14l-128-16c-9-1-15-9-14-18c1-8 8-14 16-14z m126-32l-128-16c-9-1-15-9-14-18c1-8 8-14 16-14c1 0 1 0 2 0l128 16c9 1 15 9 14 18c-1 9-9 15-18 14z"/>
<glyph unicode="&#57448;" d="M16 288l192 0c9 0 16 7 16 16l0 192c0 9-7 16-16 16l-192 0c-9 0-16-7-16-16l0-192c0-9 7-16 16-16z m16 192l160 0l0-160l-160 0z m480 16c0 9-7 16-16 16l-192 0c-9 0-16-7-16-16l0-192c0-9 7-16 16-16l192 0c9 0 16 7 16 16z m-32-176l-160 0l0 160l160 0z m-464-320l200 0c9 0 16 7 16 16l0 200c0 9-7 16-16 16l-200 0c-9 0-16-7-16-16l0-200c0-9 7-16 16-16z m16 200l168 0l0-168l-168 0z m464 24l-192 0c-9 0-16-7-16-16l0-192c0-9 7-16 16-16l192 0c9 0 16 7 16 16l0 192c0 9-7 16-16 16z m-16-192l-160 0l0 160l160 0z"/>
<glyph unicode="&#57449;" d="M331 125c7 6 7 16 0 22c-6 7-16 7-22 0l-46-45l48-32l-18-19c-7-6-7-16 0-22c3-3 7-5 11-5c4 0 8 2 11 5l46 45l-48 32z m-128 0c7 6 7 16 0 22c-6 7-16 7-22 0l-46-45l48-32l-18-19c-7-6-7-16 0-22c3-3 7-5 11-5c4 0 8 2 11 5l46 45l-48 32z m244 202c-7 90-83 161-175 161c-82 0-152-53-173-128l-3 0c-53 0-96-43-96-96c0-53 43-96 96-96l336 0c44 0 80 36 80 80c0 39-28 71-65 79z m-15-127l-336 0c-35 0-64 29-64 64c0 35 29 64 64 64l16 0c8 0 14 5 16 13c12 67 73 115 144 115c79 0 144-65 144-144c0-9 7-16 16-16c26 0 48-22 48-48c0-26-22-48-48-48z"/>
<glyph unicode="&#57450;" d="M256 400c-79 0-144-65-144-144c0-79 65-144 144-144c79 0 144 65 144 144c0 79-65 144-144 144z m0-256c-62 0-112 50-112 112c0 62 50 112 112 112c62 0 112-50 112-112c0-62-50-112-112-112z m-16 352l0-64c0-9 7-16 16-16c9 0 16 7 16 16l0 64c0 9-7 16-16 16c-9 0-16-7-16-16z m16-400c-9 0-16-7-16-16l0-64c0-9 7-16 16-16c9 0 16 7 16 16l0 64c0 9-7 16-16 16z m240 176l-64 0c-9 0-16-7-16-16c0-9 7-16 16-16l64 0c9 0 16 7 16 16c0 9-7 16-16 16z m-400-16c0 9-7 16-16 16l-64 0c-9 0-16-7-16-16c0-9 7-16 16-16l64 0c9 0 16 7 16 16z m309 171l-32-32c-7-6-7-16 0-22c3-3 7-5 11-5c4 0 8 2 11 5l32 32c7 6 7 16 0 22c-6 7-16 7-22 0z m-288-288l-32-32c-7-6-7-16 0-22c3-3 7-5 11-5c4 0 8 2 11 5l32 32c7 6 7 16 0 22c-6 7-16 7-22 0z m278 0c-6 7-16 7-22 0c-7-6-7-16 0-22l32-32c3-3 7-5 11-5c4 0 8 2 11 5c7 6 7 16 0 22z m-310 288c-7-6-7-16 0-22l32-32c3-3 7-5 11-5c4 0 8 2 11 5c7 6 7 16 0 22l-32 32c-6 7-16 7-22 0z"/>
<glyph unicode="&#57451;" d="M448 16l0 480c0 9-7 16-16 16l-352 0c-9 0-16-7-16-16l0-480c0-9 7-16 16-16l352 0c9 0 16 7 16 16z m-32 16l-320 0l0 448l320 0z m-171 59c-3-3-5-7-5-11c0-4 2-8 5-11c3-3 7-5 11-5c4 0 8 2 11 5c3 3 5 7 5 11c0 4-2 8-5 11c-6 6-16 6-22 0z m-29 325l80 0c9 0 16 7 16 16c0 9-7 16-16 16l-80 0c-9 0-16-7-16-16c0-9 7-16 16-16z"/>
<glyph unicode="&#57452;" d="M496 208l-480 0c-9 0-16-7-16-16c0-9 7-16 16-16l480 0c9 0 16 7 16 16c0 9-7 16-16 16z m0 64l-480 0c-9 0-16-7-16-16c0-9 7-16 16-16l480 0c9 0 16 7 16 16c0 9-7 16-16 16z m0 64l-480 0c-9 0-16-7-16-16c0-9 7-16 16-16l480 0c9 0 16 7 16 16c0 9-7 16-16 16z"/>
<glyph unicode="&#57453;" d="M192 0c9 0 16 7 16 16l0 480c0 9-7 16-16 16c-9 0-16-7-16-16l0-480c0-9 7-16 16-16z m64 0c9 0 16 7 16 16l0 480c0 9-7 16-16 16c-9 0-16-7-16-16l0-480c0-9 7-16 16-16z m64 0c9 0 16 7 16 16l0 480c0 9-7 16-16 16c-9 0-16-7-16-16l0-480c0-9 7-16 16-16z"/>
<glyph unicode="&#57454;" d="M5 181l42-43c7-6 17-6 23 0c9 9 21 14 34 14c26 0 48-22 48-48c0-13-5-25-14-34c-3-3-5-7-5-11c0-4 2-9 5-12l43-42c3-3 7-5 11-5c4 0 8 2 11 5l304 304c3 3 5 7 5 11c0 4-2 8-5 11l-42 43c-7 6-17 6-23 0c-9-9-21-14-34-14c-26 0-48 22-48 48c0 13 5 25 14 34c3 3 5 7 5 11c0 4-2 9-5 12l-43 42c-6 7-16 7-22 0l-304-304c-3-3-5-7-5-11c0-4 2-8 5-11z m203 180l13-12c3-3 7-5 11-5c4 0 8 2 11 5c7 6 7 16 0 22l-12 13l89 89l21-21c-8-13-13-28-13-44c0-44 36-80 80-80c16 0 31 5 44 13l21-21l-89-89l-13 12c-6 7-16 7-22 0c-7-6-7-16 0-22l12-13l-169-169l-21 21c8 13 13 28 13 44c0 44-36 80-80 80c-16 0-31-5-44-13l-21 21z m61-60c3-3 7-5 11-5c4 0 8 2 11 5c7 6 7 16 0 22l-16 16c-6 7-16 7-22 0c-7-6-7-16 0-22z m32-32l16-16c3-3 7-5 11-5c4 0 8 2 11 5c7 6 7 16 0 22l-16 16c-6 7-16 7-22 0c-7-6-7-16 0-22z"/>
<glyph unicode="&#57455;" d="M354 464l-20 39c-2 6-8 9-14 9l-128 0c-6 0-12-3-14-9l-20-39l-78 0c-9 0-16-7-16-16l0-432c0-9 7-16 16-16l352 0c9 0 16 7 16 16l0 432c0 9-7 16-16 16z m-152 16l108 0l32-64l-172 0z m214-448l-320 0l0 400l46 0l-12-25c-3-5-3-11 0-15c3-5 8-8 14-8l224 0c0 0 0 0 0 0c9 0 16 7 16 16c0 3-1 6-3 9l-11 23l46 0z m-48 304l-144 0c-9 0-16-7-16-16c0-9 7-16 16-16l144 0c9 0 16 7 16 16c0 9-7 16-16 16z m0-80l-144 0c-9 0-16-7-16-16c0-9 7-16 16-16l144 0c9 0 16 7 16 16c0 9-7 16-16 16z m0-80l-144 0c-9 0-16-7-16-16c0-9 7-16 16-16l144 0c9 0 16 7 16 16c0 9-7 16-16 16z m0-80l-144 0c-9 0-16-7-16-16c0-9 7-16 16-16l144 0c9 0 16 7 16 16c0 9-7 16-16 16z m-208 240l-16 0c-9 0-16-7-16-16c0-9 7-16 16-16l16 0c9 0 16 7 16 16c0 9-7 16-16 16z m0-80l-16 0c-9 0-16-7-16-16c0-9 7-16 16-16l16 0c9 0 16 7 16 16c0 9-7 16-16 16z m0-80l-16 0c-9 0-16-7-16-16c0-9 7-16 16-16l16 0c9 0 16 7 16 16c0 9-7 16-16 16z m0-80l-16 0c-9 0-16-7-16-16c0-9 7-16 16-16l16 0c9 0 16 7 16 16c0 9-7 16-16 16z"/>
<glyph unicode="&#57456;" d="M178 503l-20-39l-78 0c-9 0-16-7-16-16l0-432c0-9 7-16 16-16l352 0c9 0 16 7 16 16l0 432c0 9-7 16-16 16l-78 0l-20 39c-2 6-8 9-14 9l-128 0c-6 0-12-3-14-9z m238-71l0-400l-320 0l0 400l46 0l-12-25c-3-5-3-11 0-15c3-5 8-8 14-8l224 0c0 0 0 0 0 0c9 0 16 7 16 16c0 3-1 6-3 9l-11 23z m-106 48l32-64l-172 0l32 64z m10-224l-48 0l0 48c0 9-7 16-16 16c-9 0-16-7-16-16l0-48l-48 0c-9 0-16-7-16-16c0-9 7-16 16-16l48 0l0-48c0-9 7-16 16-16c9 0 16 7 16 16l0 48l48 0c9 0 16 7 16 16c0 9-7 16-16 16z"/>
<glyph unicode="&#57457;" d="M432 0c9 0 16 7 16 16l0 432c0 9-7 16-16 16l-78 0l-20 39c-2 6-8 9-14 9l-128 0c-6 0-12-3-14-9l-20-39l-78 0c-9 0-16-7-16-16l0-432c0-9 7-16 16-16z m-230 480l108 0l32-64l-172 0z m-106-48l46 0l-12-25c-3-5-3-11 0-15c3-5 8-8 14-8l224 0c0 0 0 0 0 0c9 0 16 7 16 16c0 3-1 6-3 9l-11 23l46 0l0-400l-320 0z m213-149l-69-68l-37 36c-6 7-16 7-22 0c-7-6-7-16 0-22l48-48c3-3 7-5 11-5c4 0 8 2 11 5l80 80c7 6 7 16 0 22c-6 7-16 7-22 0z"/>
<glyph unicode="&#57458;" d="M312 512l-112 0c-9 0-16-7-16-16l0-48l-104 0c-9 0-16-7-16-16c0-9 7-16 16-16l16 0l0-400c0-9 7-16 16-16l288 0c9 0 16 7 16 16l0 400l16 0c9 0 16 7 16 16c0 9-7 16-16 16l-104 0l0 48c0 9-7 16-16 16z m72-96l0-384l-256 0l0 384z m-168 32l0 32l80 0l0-32z m-8-384c9 0 16 7 16 16l0 272c0 9-7 16-16 16c-9 0-16-7-16-16l0-272c0-9 7-16 16-16z m96 0c9 0 16 7 16 16l0 272c0 9-7 16-16 16c-9 0-16-7-16-16l0-272c0-9 7-16 16-16z"/>
<glyph unicode="&#57459;" d="M496 480l-160 0c-5 0-10-2-13-6l-43-58l-48 0l-43 58c-3 4-8 6-13 6l-160 0c-9 0-16-7-16-16l0-128c0-9 7-16 16-16l80 0l0-272c0-9 7-16 16-16l288 0c9 0 16 7 16 16l0 272l80 0c9 0 16 7 16 16l0 128c0 9-7 16-16 16z m-16-128l-80 0c-9 0-16-7-16-16l0-272l-256 0l0 272c0 9-7 16-16 16l-80 0l0 96l136 0l43-58c3-4 8-6 13-6l64 0c5 0 10 2 13 6l43 58l136 0z"/>
<glyph unicode="&#57460;" d="M496 448l-480 0c-9 0-16-7-16-16l0-320c0-9 7-16 16-16l224 0l0-64l-64 0c-9 0-16-7-16-16c0-9 7-16 16-16l160 0c9 0 16 7 16 16c0 9-7 16-16 16l-64 0l0 64l224 0c9 0 16 7 16 16l0 320c0 9-7 16-16 16z m-16-320l-448 0l0 288l448 0z"/>
<glyph unicode="&#57461;" d="M256 512c-219 0-255-203-256-205c-1-5 1-10 4-13c3-4 7-6 12-6l224 0l0-240c0-26 22-48 48-48c26 0 48 22 48 48c0 9-7 16-16 16c-9 0-16-7-16-16c0-9-7-16-16-16c-9 0-16 7-16 16l0 240l224 0c0 0 0 0 0 0c9 0 16 7 16 16c0 2 0 4-1 5c-5 25-50 203-255 203z m-220-192c14 46 64 160 220 160c156 0 206-114 220-160z"/>
<glyph unicode="&#57462;" d="M256 32c9 0 16 7 16 16l0 217l37-36c3-3 7-5 11-5c4 0 8 2 11 5c7 6 7 16 0 22l-64 64c-6 7-16 7-22 0l-64-64c-7-6-7-16 0-22c6-7 16-7 22 0l37 36l0-217c0-9 7-16 16-16z m-240 128l176 0c9 0 16 7 16 16c0 9-7 16-16 16l-160 0l0 256l448 0l0-256l-160 0c-9 0-16-7-16-16c0-9 7-16 16-16l176 0c9 0 16 7 16 16l0 288c0 9-7 16-16 16l-480 0c-9 0-16-7-16-16l0-288c0-9 7-16 16-16z"/>
<glyph unicode="&#57463;" d="M16 128l176 0c9 0 16 7 16 16c0 9-7 16-16 16l-160 0l0 320l137 0l60-59c3-3 7-5 11-5l240 0l0-256l-160 0c-9 0-16-7-16-16c0-9 7-16 16-16l176 0c9 0 16 7 16 16l0 288c0 9-7 16-16 16l-249 0l-60 59c-3 3-7 5-11 5l-160 0c-9 0-16-7-16-16l0-352c0-9 7-16 16-16z m240-128c9 0 16 7 16 16l0 217l37-36c3-3 7-5 11-5c4 0 8 2 11 5c7 6 7 16 0 22l-64 64c-6 7-16 7-22 0l-64-64c-7-6-7-16 0-22c6-7 16-7 22 0l37 36l0-217c0-9 7-16 16-16z"/>
<glyph unicode="&#57464;" d="M399 239c0 0 0 0 0 0c17 14 33 33 33 65c0 55-45 104-96 104c-29 0-55-12-73-34c-10 1-20 2-31 2c-66 0-112-34-139-105c-38-3-93-24-93-87c0-40 30-80 96-80l288 0c44 0 64 20 64 64c0 38-19 64-49 71z m-63 137c37 0 64-38 64-72c0-11-3-20-10-29c-15 42-47 74-91 90c11 7 24 11 37 11z m48-240l-288 0c-47 0-64 25-64 48c0 23 11 38 33 48c19 8 39 8 39 8l11 0l4 11c22 64 57 93 113 93c80 0 133-46 136-121l1-15l15 0c26 0 32-22 32-40c0-27-5-32-32-32z m112 192l-32 0c-9 0-16-7-16-16c0-9 7-16 16-16l32 0c9 0 16 7 16 16c0 9-7 16-16 16z m-144 112l0 32c0 9-7 16-16 16c-9 0-16-7-16-16l0-32c0-9 7-16 16-16c9 0 16 7 16 16z m83-35l24 24c7 6 7 16 0 22c-6 7-16 7-22 0l-24-24c-7-6-7-16 0-22c3-3 7-5 11-5c4 0 8 2 11 5z m-187-5c4 0 8 2 11 5c7 6 7 16 0 22l-24 24c-6 7-16 7-22 0c-7-6-7-16 0-22l24-24c3-3 7-5 11-5z"/>
<glyph unicode="&#57465;" d="M504 366c-5 3-12 3-16 0l-104-65l0 51c0 9-7 16-16 16l-41 0l-64 64l-215 0c-9 0-16-7-16-16c0-9 7-16 16-16l201 0l32-32l-265 0c-9 0-16-7-16-16l0-256c0-9 7-16 16-16l352 0c9 0 16 7 16 16l0 51l104-65c2-1 5-2 8-2c3 0 5 1 8 2c5 3 8 8 8 14l0 256c0 6-3 11-8 14z m-24-241l-104 65c-4 3-11 3-16 0c-5-3-8-8-8-14l0-64l-320 0l0 224l320 0l0-64c0-6 3-11 8-14c5-3 12-3 16 0l104 65z m-416 147l32 0c9 0 16 7 16 16c0 9-7 16-16 16l-32 0c-9 0-16-7-16-16c0-9 7-16 16-16z m128-32l-128 0c-9 0-16-7-16-16l0-64c0-9 7-16 16-16l128 0c9 0 16 7 16 16l0 64c0 9-7 16-16 16z m-16-64l-96 0l0 32l96 0z"/>
<glyph unicode="&#57466;" d="M24 144l89 0l140-139c3-3 7-5 11-5c2 0 4 0 6 1c6 3 10 9 10 15l0 480c0 6-4 12-10 15c-6 2-13 1-17-4l-140-139l-89 0c-9 0-16-7-16-16l0-192c0-9 7-16 16-16z m16 192l80 0c4 0 8 2 11 5l117 116l0-402l-117 116c-3 3-7 5-11 5l-80 0z m288-144c-9 0-16-7-16-16c0-9 7-16 16-16c53 0 96 43 96 96c0 53-43 96-96 96c-9 0-16-7-16-16c0-9 7-16 16-16c35 0 64-29 64-64c0-35-29-64-64-64z m0-112c97 0 176 79 176 176c0 97-79 176-176 176c-9 0-16-7-16-16c0-9 7-16 16-16c79 0 144-65 144-144c0-79-65-144-144-144c-9 0-16-7-16-16c0-9 7-16 16-16z"/>
<glyph unicode="&#57467;" d="M64 144l89 0l140-139c3-3 7-5 11-5c2 0 4 0 6 1c6 3 10 9 10 15l0 480c0 6-4 12-10 15c-6 2-13 1-17-4l-140-139l-89 0c-9 0-16-7-16-16l0-192c0-9 7-16 16-16z m16 192l80 0c4 0 8 2 11 5l117 116l0-402l-117 116c-3 3-7 5-11 5l-80 0z m288-144c-9 0-16-7-16-16c0-9 7-16 16-16c53 0 96 43 96 96c0 53-43 96-96 96c-9 0-16-7-16-16c0-9 7-16 16-16c35 0 64-29 64-64c0-35-29-64-64-64z"/>
<glyph unicode="&#57468;" d="M32 144l89 0l140-139c3-3 7-5 11-5c2 0 4 0 6 1c6 3 10 9 10 15l0 480c0 6-4 12-10 15c-6 2-13 1-17-4l-140-139l-89 0c-9 0-16-7-16-16l0-192c0-9 7-16 16-16z m16 192l80 0c4 0 8 2 11 5l117 116l0-402l-117 116c-3 3-7 5-11 5l-80 0z m277-163c3-3 7-5 11-5c4 0 8 2 11 5l61 60l61-60c3-3 7-5 11-5c4 0 8 2 11 5c7 6 7 16 0 22l-60 61l60 61c7 6 7 16 0 22c-6 7-16 7-22 0l-61-60l-61 60c-6 7-16 7-22 0c-7-6-7-16 0-22l60-61l-60-61c-7-6-7-16 0-22z"/>
<glyph unicode="&#57469;" d="M160 0l192 0c9 0 16 7 16 16l0 104c39 33 64 81 64 136c0 55-25 103-64 136l0 104c0 9-7 16-16 16l-192 0c-9 0-16-7-16-16l0-104c-39-33-64-81-64-136c0-55 25-103 64-136l0-104c0-9 7-16 16-16z m176 32l-160 0l0 67c24-12 51-19 80-19c29 0 56 7 80 19z m-160 448l160 0l0-67c-24 12-51 19-80 19c-29 0-56-7-80-19z m-64-224c0 79 65 144 144 144c79 0 144-65 144-144c0-79-65-144-144-144c-79 0-144 65-144 144z m137-14l64-32c2-1 5-2 7-2c6 0 12 3 14 9c4 8 1 17-7 21l-55 28l0 86c0 9-7 16-16 16c-9 0-16-7-16-16l0-96c0-6 3-12 9-14z"/>
<glyph unicode="&#57470;" d="M160 160c-9 0-16-7-16-16l0-48c0-9 7-16 16-16c9 0 16 7 16 16l0 48c0 9-7 16-16 16z m128 0c-9 0-16-7-16-16l0-64c0-9 7-16 16-16c9 0 16 7 16 16l0 64c0 9-7 16-16 16z m-64 0c-9 0-16-7-16-16l0-112c0-9 7-16 16-16c9 0 16 7 16 16l0 112c0 9-7 16-16 16z m128 0c-9 0-16-7-16-16l0-112c0-9 7-16 16-16c9 0 16 7 16 16l0 112c0 9-7 16-16 16z m95 175c-7 90-83 161-175 161c-82 0-152-53-173-128l-3 0c-53 0-96-43-96-96c0-53 43-96 96-96l336 0c44 0 80 36 80 80c0 39-28 71-65 79z m-15-127l-336 0c-35 0-64 29-64 64c0 35 29 64 64 64l16 0c8 0 14 5 16 13c12 67 73 115 144 115c79 0 144-65 144-144c0-9 7-16 16-16c26 0 48-22 48-48c0-26-22-48-48-48z"/>
<glyph unicode="&#57471;" d="M496 472l-480 0c-9 0-16-7-16-16l0-400c0-9 7-16 16-16l480 0c9 0 16 7 16 16l0 400c0 9-7 16-16 16z m-16-32l0-64l-448 0l0 64z m-448-368l0 272l448 0l0-272z m48 320c4 0 8 2 11 5c3 3 5 7 5 11c0 4-2 8-5 11c-6 6-16 6-22 0c-3-3-5-7-5-11c0-4 2-8 5-11c3-3 7-5 11-5z m48 0c4 0 8 2 11 5c3 3 5 7 5 11c0 4-2 8-5 11c-6 6-16 6-22 0c-3-3-5-7-5-11c0-4 2-8 5-11c3-3 7-5 11-5z m48 0c4 0 8 2 11 5c3 3 5 7 5 11c0 4-2 8-5 11c-6 6-16 6-22 0c-3-3-5-7-5-11c0-4 2-8 5-11c3-3 7-5 11-5z m72-80l-168 0c-9 0-16-7-16-16c0-9 7-16 16-16l168 0c9 0 16 7 16 16c0 9-7 16-16 16z m0-64l-168 0c-9 0-16-7-16-16c0-9 7-16 16-16l168 0c9 0 16 7 16 16c0 9-7 16-16 16z m0-64l-168 0c-9 0-16-7-16-16c0-9 7-16 16-16l168 0c9 0 16 7 16 16c0 9-7 16-16 16z m184 128l-120 0c-9 0-16-7-16-16l0-128c0-9 7-16 16-16l120 0c9 0 16 7 16 16l0 128c0 9-7 16-16 16z m-16-128l-88 0l0 96l88 0z"/>
<glyph unicode="&#57472;" d="M16 40l480 0c9 0 16 7 16 16l0 400c0 9-7 16-16 16l-480 0c-9 0-16-7-16-16l0-400c0-9 7-16 16-16z m16 32l0 272l448 0l0-272z m448 368l0-64l-448 0l0 64z m-400-48c4 0 8 2 11 5c3 3 5 7 5 11c0 4-2 8-5 11c-6 6-16 6-22 0c-3-3-5-7-5-11c0-4 2-8 5-11c3-3 7-5 11-5z m48 0c4 0 8 2 11 5c3 3 5 7 5 11c0 4-2 8-5 11c-6 6-16 6-22 0c-3-3-5-7-5-11c0-4 2-8 5-11c3-3 7-5 11-5z m48 0c4 0 8 2 11 5c3 3 5 7 5 11c0 4-2 8-5 11c-6 6-16 6-22 0c-3-3-5-7-5-11c0-4 2-8 5-11c3-3 7-5 11-5z m256-80l-352 0c-9 0-16-7-16-16c0-9 7-16 16-16l352 0c9 0 16 7 16 16c0 9-7 16-16 16z m0-64l-352 0c-9 0-16-7-16-16c0-9 7-16 16-16l352 0c9 0 16 7 16 16c0 9-7 16-16 16z m0-64l-352 0c-9 0-16-7-16-16c0-9 7-16 16-16l352 0c9 0 16 7 16 16c0 9-7 16-16 16z"/>
<glyph unicode="&#57473;" d="M368 512l-64 0c-9 0-16-7-16-16l0-147c-16-5-32-19-32-45l0-288c0-9 7-16 16-16l128 0c9 0 16 7 16 16l0 288c0 26-16 40-32 45l0 147c0 9-7 16-16 16z m-64-192c9 0 16 7 16 16l0 144l32 0l0-144c0-9 7-16 16-16c7 0 16-3 16-16l0-64l-96 0l0 64c0 13 9 16 16 16z m-16-112l96 0l0-64l-96 0z m0-176l0 80l96 0l0-80z m-71 147c4 3 7 8 7 13l0 128c0 9-7 16-16 16l-96 0c-9 0-16-7-16-16l0-128c0-5 3-10 7-13l41-28l0-119l-24 0c-9 0-16-7-16-16c0-9 7-16 16-16l80 0c9 0 16 7 16 16c0 9-7 16-16 16l-24 0l0 119z m-89 125l64 0l0-103l-32-22l-32 22z"/>
<glyph unicode="&#57474;" d="M496 448l-64 0l0 16c0 9-7 16-16 16l-48 0c-9 0-16-7-16-16l0-16l-192 0l0 16c0 9-7 16-16 16l-48 0c-9 0-16-7-16-16l0-16l-64 0c-9 0-16-7-16-16l0-384c0-9 7-16 16-16l480 0c9 0 16 7 16 16l0 384c0 9-7 16-16 16z m-112 0l16 0l0-32l-16 0z m-272 0l16 0l0-32l-16 0z m368-384l-448 0l0 352l48 0l0-16c0-9 7-16 16-16l48 0c9 0 16 7 16 16l0 16l192 0l0-16c0-9 7-16 16-16l48 0c9 0 16 7 16 16l0 16l48 0z m-320 256l-64 0c-9 0-16-7-16-16l0-64c0-9 7-16 16-16l64 0c9 0 16 7 16 16l0 64c0 9-7 16-16 16z m-16-64l-32 0l0 32l32 0z m144 64l-64 0c-9 0-16-7-16-16l0-64c0-9 7-16 16-16l64 0c9 0 16 7 16 16l0 64c0 9-7 16-16 16z m-16-64l-32 0l0 32l32 0z m144 64l-64 0c-9 0-16-7-16-16l0-64c0-9 7-16 16-16l64 0c9 0 16 7 16 16l0 64c0 9-7 16-16 16z m-16-64l-32 0l0 32l32 0z m-240-64l-64 0c-9 0-16-7-16-16l0-64c0-9 7-16 16-16l64 0c9 0 16 7 16 16l0 64c0 9-7 16-16 16z m-16-64l-32 0l0 32l32 0z m144 64l-64 0c-9 0-16-7-16-16l0-64c0-9 7-16 16-16l64 0c9 0 16 7 16 16l0 64c0 9-7 16-16 16z m-16-64l-32 0l0 32l32 0z m144 64l-64 0c-9 0-16-7-16-16l0-64c0-9 7-16 16-16l64 0c9 0 16 7 16 16l0 64c0 9-7 16-16 16z m-16-64l-32 0l0 32l32 0z"/>
<glyph unicode="&#57475;" d="M464 256c0 115-93 208-208 208c-115 0-208-93-208-208c0-78 43-146 107-182l-46-47c-7-6-7-16 0-22c3-3 7-5 11-5c4 0 8 2 11 5l56 55c21-8 45-12 69-12c24 0 48 4 69 12l56-55c3-3 7-5 11-5c4 0 8 2 11 5c7 6 7 16 0 22l-46 47c64 36 107 104 107 182z m-135-160c-4 0-9-1-12-5c-1 0-1 0-1 0c-19-7-39-11-60-11c-21 0-41 4-60 11c0 0 0 0-1 0c-3 4-8 5-12 5c-61 28-103 89-103 160c0 97 79 176 176 176c97 0 176-79 176-176c0-71-42-132-103-160z m-2 142l-55 28l0 86c0 9-7 16-16 16c-9 0-16-7-16-16l0-96c0-6 3-12 9-14l64-32c2-1 5-2 7-2c6 0 12 3 14 9c4 8 1 17-7 21z m-184 247c-1 5-6 10-12 11l-80 16c-5 1-11-1-14-5l-32-32c-4-3-6-9-5-14l16-80c1-6 6-11 11-12c2-1 3-1 5-1c4 0 8 2 11 5l96 96c4 4 6 10 4 16z m-101-69l-9 43l20 20l43-9z m438-48c2 0 3 0 5 1c5 1 10 6 11 12l16 80c1 5-1 11-5 14l-32 32c-3 4-9 6-14 5l-80-16c-6-1-11-6-12-11c-2-6 0-12 4-16l96-96c3-3 7-5 11-5z m-21 111l20-20l-9-43l-54 54z"/>
<glyph unicode="&#57476;" d="M496 400l-249 0l-60 59c-3 3-7 5-11 5l-160 0c-9 0-16-7-16-16l0-352c0-9 7-16 16-16l480 0c9 0 16 7 16 16l0 288c0 9-7 16-16 16z m-16-288l-448 0l0 320l137 0l60-59c3-3 7-5 11-5l240 0z m-240 144l-64 0c-9 0-16-7-16-16c0-9 7-16 16-16l64 0l0-64c0-9 7-16 16-16c9 0 16 7 16 16l0 64l64 0c9 0 16 7 16 16c0 9-7 16-16 16l-64 0l0 64c0 9-7 16-16 16c-9 0-16-7-16-16z"/>
<glyph unicode="&#57477;" d="M256 512c-68 0-133-27-181-75c-48-48-75-113-75-181c0-68 27-133 75-181c48-48 113-75 181-75c68 0 133 27 181 75c48 48 75 113 75 181c0 68-27 133-75 181c-48 48-113 75-181 75z m158-414c-42-43-98-66-158-66c-60 0-116 23-158 66c-43 42-66 98-66 158c0 60 23 116 66 158c42 43 98 66 158 66c60 0 116-23 158-66c43-42 66-98 66-158c0-60-23-116-66-158z m-158 350c-51 0-100-20-136-56c-36-37-56-85-56-136c0-9 7-16 16-16c9 0 16 7 16 16c0 43 17 83 47 113c30 30 70 47 113 47c43 0 83-17 113-47c30-30 47-70 47-113c0-9 7-16 16-16c9 0 16 7 16 16c0 51-20 99-56 136c-36 36-85 56-136 56z m0-184c-2 0-4 0-6-1l-46 52c-6 6-16 7-23 1c-6-6-7-16-1-23l46-51c-1-3-2-7-2-10c0-9 3-17 9-23c7-6 15-9 23-9c9 0 17 3 23 9c12 13 12 33 0 46c-6 6-15 9-23 9z"/>
<glyph unicode="&#57478;" d="M104 0l304 0c18 0 32 14 32 32l0 448c0 18-14 32-32 32l-304 0c-18 0-32-14-32-32l0-48l-16 0c-9 0-16-7-16-16c0-9 7-16 16-16l16 0l0-32l-16 0c-9 0-16-7-16-16c0-9 7-16 16-16l16 0l0-32l-16 0c-9 0-16-7-16-16c0-9 7-16 16-16l16 0l0-32l-16 0c-9 0-16-7-16-16c0-9 7-16 16-16l16 0l0-32l-16 0c-9 0-16-7-16-16c0-9 7-16 16-16l16 0l0-32l-16 0c-9 0-16-7-16-16c0-9 7-16 16-16l16 0l0-48c0-18 14-32 32-32z m304 32l-64 0l0 448l64 0z m-304 112l16 0c9 0 16 7 16 16c0 9-7 16-16 16l-16 0l0 32l16 0c9 0 16 7 16 16c0 9-7 16-16 16l-16 0l0 32l16 0c9 0 16 7 16 16c0 9-7 16-16 16l-16 0l0 32l16 0c9 0 16 7 16 16c0 9-7 16-16 16l-16 0l0 32l16 0c9 0 16 7 16 16c0 9-7 16-16 16l-16 0l0 48l208 0l0-448l-208 0l0 48l16 0c9 0 16 7 16 16c0 9-7 16-16 16l-16 0z"/>
<glyph unicode="&#57479;" d="M308 403c-6 6-17 7-23 1l-144-136c-3-3-5-8-5-12c0-4 2-9 5-12l144-136c3-3 7-4 11-4c4 0 8 2 12 5c6 6 5 17-1 23l-132 124l132 124c6 6 7 17 1 23z m-52 109c-68 0-133-27-181-75c-48-48-75-113-75-181c0-68 27-133 75-181c48-48 113-75 181-75c68 0 133 27 181 75c48 48 75 113 75 181c0 68-27 133-75 181c-48 48-113 75-181 75z m158-414c-42-43-98-66-158-66c-60 0-116 23-158 66c-43 42-66 98-66 158c0 60 23 116 66 158c42 43 98 66 158 66c60 0 116-23 158-66c43-42 66-98 66-158c0-60-23-116-66-158z"/>
<glyph unicode="&#57480;" d="M380 307l-124-132l-124 132c-6 6-17 7-23 1c-6-6-7-17-1-23l136-144c3-3 8-5 12-5c4 0 9 2 12 5l136 144c6 6 5 17-1 23c-6 6-17 5-23-1z m-124 205c-68 0-133-27-181-75c-48-48-75-113-75-181c0-68 27-133 75-181c48-48 113-75 181-75c68 0 133 27 181 75c48 48 75 113 75 181c0 68-27 133-75 181c-48 48-113 75-181 75z m158-414c-42-43-98-66-158-66c-60 0-116 23-158 66c-43 42-66 98-66 158c0 60 23 116 66 158c42 43 98 66 158 66c60 0 116-23 158-66c43-42 66-98 66-158c0-60-23-116-66-158z"/>
<glyph unicode="&#57481;" d="M0 152c0-9 7-16 16-16l464 0c9 0 16 7 16 16l0 32l16 0l0 128l-16 0l0 32c0 9-7 16-16 16l-464 0c-9 0-16-7-16-16z m32 176l432 0l0-160l-432 0z m48-16c-9 0-16-7-16-16l0-96c0-9 7-16 16-16c9 0 16 7 16 16l0 96c0 9-7 16-16 16z m48 0c-9 0-16-7-16-16l0-96c0-9 7-16 16-16c9 0 16 7 16 16l0 96c0 9-7 16-16 16z"/>
<glyph unicode="&#57482;" d="M496 384l-136 0l0 48c0 9-7 16-16 16l-176 0c-9 0-16-7-16-16l0-48l-136 0c-9 0-16-7-16-16l0-288c0-9 7-16 16-16l480 0c9 0 16 7 16 16l0 288c0 9-7 16-16 16z m-312 32l144 0l0-32l-144 0z m296-320l-448 0l0 256l448 0z"/>
<glyph unicode="&#57483;" d="M268 371c-6 6-18 6-24 0l-136-144c-6-6-5-17 1-23c6-6 17-5 23 1l124 132l124-132c4-3 8-5 12-5c4 0 8 1 11 4c6 6 7 17 1 23z m-12 141c-68 0-133-27-181-75c-48-48-75-113-75-181c0-68 27-133 75-181c48-48 113-75 181-75c68 0 133 27 181 75c48 48 75 113 75 181c0 68-27 133-75 181c-48 48-113 75-181 75z m158-414c-42-43-98-66-158-66c-60 0-116 23-158 66c-43 42-66 98-66 158c0 60 23 116 66 158c42 43 98 66 158 66c60 0 116-23 158-66c43-42 66-98 66-158c0-60-23-116-66-158z"/>
<glyph unicode="&#57484;" d="M227 404c-6 6-17 5-23-1c-6-6-5-17 1-23l132-124l-132-124c-6-6-7-17-1-23c4-3 8-5 12-5c4 0 8 1 11 4l144 136c3 3 5 8 5 12c0 4-2 9-5 12z m29 108c-68 0-133-27-181-75c-48-48-75-113-75-181c0-68 27-133 75-181c48-48 113-75 181-75c68 0 133 27 181 75c48 48 75 113 75 181c0 68-27 133-75 181c-48 48-113 75-181 75z m158-414c-42-43-98-66-158-66c-60 0-116 23-158 66c-43 42-66 98-66 158c0 60 23 116 66 158c42 43 98 66 158 66c60 0 116-23 158-66c43-42 66-98 66-158c0-60-23-116-66-158z"/>
<glyph unicode="&#57485;" d="M496 384l-154 0c-5 23-24 64-86 64c-62 0-81-41-86-64l-154 0c-9 0-16-7-16-16l0-288c0-9 7-16 16-16l480 0c9 0 16 7 16 16l0 288c0 9-7 16-16 16z m-240 32c35 0 48-18 53-32l-106 0c5 14 18 32 53 32z m224-64l0-64l-448 0l0 64z m-248-96l48 0l0-16l-48 0z m-200-160l0 160l168 0l0-32c0-9 7-16 16-16l80 0c9 0 16 7 16 16l0 32l168 0l0-160z"/>
<glyph unicode="&#57486;" d="M256 512c-68 0-133-27-181-75c-48-48-75-113-75-181c0-68 27-133 75-181c48-48 113-75 181-75c68 0 133 27 181 75c48 48 75 113 75 181c0 68-27 133-75 181c-48 48-113 75-181 75z m-158-98c12 12 25 23 38 31l83-137c-3-2-6-4-8-7c-3-2-5-5-7-8l-137 83c8 13 19 26 31 38z m181-181c-6-6-14-9-23-9c-9 0-17 3-23 9c-12 13-12 33 0 46c6 6 14 9 23 9c9 0 17-3 23-9c12-13 12-33 0-46z m-181-135c-43 42-66 98-66 158c0 32 7 63 19 91l141-84c-2-19 5-38 19-52c12-12 28-19 45-19c2 0 5 0 7 0l84-141c-28-12-59-19-91-19c-60 0-116 23-158 66z m316 0c-12-12-25-23-38-31l-83 137c3 2 6 4 8 7c3 2 5 5 7 8l137-83c-8-13-19-26-31-38z m47 67l-141 84c2 19-5 38-19 52c-12 12-28 19-45 19c-2 0-4 0-7 0l-84 141c28 12 59 19 91 19c60 0 116-23 158-66c43-42 66-98 66-158c0-32-7-63-19-91z"/>
<glyph unicode="&#57487;" d="M496 352c0 9-7 16-16 16l-464 0c-9 0-16-7-16-16l0-192c0-9 7-16 16-16l464 0c9 0 16 7 16 16l0 32l16 0l0 128l-16 0z m-32-176l-432 0l0 160l432 0z m-384 144c-9 0-16-7-16-16l0-96c0-9 7-16 16-16c9 0 16 7 16 16l0 96c0 9-7 16-16 16z m48 0c-9 0-16-7-16-16l0-96c0-9 7-16 16-16c9 0 16 7 16 16l0 96c0 9-7 16-16 16z m48 0c-9 0-16-7-16-16l0-96c0-9 7-16 16-16c9 0 16 7 16 16l0 96c0 9-7 16-16 16z m48 0c-9 0-16-7-16-16l0-96c0-9 7-16 16-16c9 0 16 7 16 16l0 96c0 9-7 16-16 16z"/>
<glyph unicode="&#57488;" d="M0 160c0-9 7-16 16-16l464 0c9 0 16 7 16 16l0 32l16 0l0 128l-16 0l0 32c0 9-7 16-16 16l-464 0c-9 0-16-7-16-16z m32 176l432 0l0-160l-432 0z m48-16c-9 0-16-7-16-16l0-96c0-9 7-16 16-16c9 0 16 7 16 16l0 96c0 9-7 16-16 16z m48 0c-9 0-16-7-16-16l0-96c0-9 7-16 16-16c9 0 16 7 16 16l0 96c0 9-7 16-16 16z m48 0c-9 0-16-7-16-16l0-96c0-9 7-16 16-16c9 0 16 7 16 16l0 96c0 9-7 16-16 16z m48 0c-9 0-16-7-16-16l0-96c0-9 7-16 16-16c9 0 16 7 16 16l0 96c0 9-7 16-16 16z m48 0c-9 0-16-7-16-16l0-96c0-9 7-16 16-16c9 0 16 7 16 16l0 96c0 9-7 16-16 16z m48 0c-9 0-16-7-16-16l0-96c0-9 7-16 16-16c9 0 16 7 16 16l0 96c0 9-7 16-16 16z"/>
<glyph unicode="&#57489;" d="M256 0c68 0 133 27 181 75c48 48 75 113 75 181c0 68-27 133-75 181c-48 48-113 75-181 75c-68 0-133-27-181-75c-48-48-75-113-75-181c0-68 27-133 75-181c48-48 113-75 181-75z m-158 414c42 43 98 66 158 66c60 0 116-23 158-66c43-42 66-98 66-158c0-60-23-116-66-158c-42-43-98-66-158-66c-60 0-116 23-158 66c-43 42-66 98-66 158c0 60 23 116 66 158z m93-286c1 0 1 0 1 0c4 0 9 2 12 5l200 208c6 6 5 16-1 23c-6 6-16 5-23-1l-187-195l-77 90c-5 7-16 8-22 2c-7-5-8-16-2-22l88-104c3-4 7-6 11-6z"/>
<glyph unicode="&#57490;" d="M0 160c0-9 7-16 16-16l464 0c9 0 16 7 16 16l0 32l16 0l0 128l-16 0l0 32c0 9-7 16-16 16l-464 0c-9 0-16-7-16-16z m32 176l432 0l0-160l-432 0z m48-16c-9 0-16-7-16-16l0-96c0-9 7-16 16-16c9 0 16 7 16 16l0 96c0 9-7 16-16 16z m48 0c-9 0-16-7-16-16l0-96c0-9 7-16 16-16c9 0 16 7 16 16l0 96c0 9-7 16-16 16z m48 0c-9 0-16-7-16-16l0-96c0-9 7-16 16-16c9 0 16 7 16 16l0 96c0 9-7 16-16 16z m48 0c-9 0-16-7-16-16l0-96c0-9 7-16 16-16c9 0 16 7 16 16l0 96c0 9-7 16-16 16z m48 0c-9 0-16-7-16-16l0-96c0-9 7-16 16-16c9 0 16 7 16 16l0 96c0 9-7 16-16 16z m48 0c-9 0-16-7-16-16l0-96c0-9 7-16 16-16c9 0 16 7 16 16l0 96c0 9-7 16-16 16z m48 0c-9 0-16-7-16-16l0-96c0-9 7-16 16-16c9 0 16 7 16 16l0 96c0 9-7 16-16 16z m48 0c-9 0-16-7-16-16l0-96c0-9 7-16 16-16c9 0 16 7 16 16l0 96c0 9-7 16-16 16z"/>
<glyph unicode="&#57491;" d="M24 232c0-62 24-120 68-164c44-44 102-68 164-68c62 0 120 24 164 68c44 44 68 102 68 164c0 62-24 120-68 164c-40 40-92 64-148 67l0 17l32 0c9 0 16 7 16 16c0 9-7 16-16 16l-96 0c-9 0-16-7-16-16c0-9 7-16 16-16l32 0l0-17c-56-3-108-27-148-67c-44-44-68-102-68-164z m431 16l-15 0c-9 0-16-7-16-16c0-9 7-16 16-16l15 0c-3-42-19-82-47-114c0 1-1 1-1 2l-23 22c-6 7-16 7-22 0c-7-6-7-16 0-22l22-23c1 0 1-1 2-1c-32-28-72-44-114-47l0 23c0 9-7 16-16 16c-9 0-16-7-16-16l0-23c-42 3-82 19-114 47c1 0 1 1 2 1l22 23c7 6 7 16 0 22c-6 7-16 7-22 0l-23-22c0-1-1-1-1-2c-28 32-44 72-47 114l15 0c9 0 16 7 16 16c0 9-7 16-16 16l-15 0c3 42 19 82 47 114c0-1 1-1 1-2l23-22c3-4 7-5 11-5c4 0 8 1 11 5c7 6 7 16 0 22l-22 23c-1 0-1 1-2 1c32 28 72 44 114 47l0-15c0-9 7-16 16-16c9 0 16 7 16 16l0 15c42-3 82-19 114-47c-1 0-1-1-2-1l-22-23c-7-6-7-16 0-22c3-4 7-5 11-5c4 0 8 1 11 5l23 22c0 1 1 1 1 2c28-32 44-72 47-114z m-183 12l0 68c0 9-7 16-16 16c-9 0-16-7-16-16l0-68c-10-6-16-16-16-28c0-18 14-32 32-32c18 0 32 14 32 32c0 12-6 22-16 28z"/>
<glyph unicode="&#57492;" d="M256 512c-68 0-133-27-181-75c-48-48-75-113-75-181c0-68 27-133 75-181c48-48 113-75 181-75c68 0 133 27 181 75c48 48 75 113 75 181c0 68-27 133-75 181c-48 48-113 75-181 75z m158-414c-42-43-98-66-158-66c-60 0-116 23-158 66c-43 42-66 98-66 158c0 60 23 116 66 158c42 43 98 66 158 66c60 0 116-23 158-66c43-42 66-98 66-158c0-60-23-116-66-158z m-40 125l-102 44l0 165c0 9-7 16-16 16c-9 0-16-7-16-16l0-176c0-6 4-12 10-15l112-48c2-1 4-1 6-1c6 0 12 4 15 10c3 8-1 17-9 21z m-278 49l-16 0c-9 0-16-7-16-16c0-9 7-16 16-16l16 0c9 0 16 7 16 16c0 9-7 16-16 16z m304-16c0-9 7-16 16-16l16 0c9 0 16 7 16 16c0 9-7 16-16 16l-16 0c-9 0-16-7-16-16z m-144-144c-9 0-16-7-16-16l0-16c0-9 7-16 16-16c9 0 16 7 16 16l0 16c0 9-7 16-16 16z"/>
<glyph unicode="&#57493;" d="M464 160c9 0 16 7 16 16l0 288c0 9-7 16-16 16l-192 0l0 16c0 9-7 16-16 16c-9 0-16-7-16-16l0-16l-192 0c-9 0-16-7-16-16l0-288c0-9 7-16 16-16l192 0l0-81l-51-52c-7-6-7-16 0-22c6-7 16-7 22 0l29 28l0-17c0-9 7-16 16-16c9 0 16 7 16 16l0 17l29-28c3-3 7-5 11-5c4 0 8 2 11 5c7 6 7 16 0 22l-51 52l0 81z m-400 288l384 0l0-256l-384 0z m304-128c0-9 7-16 16-16c9 0 16 7 16 16l0 80c0 1 0 2 0 3c0 1-1 1-1 2c0 0 0 1 0 1c0 1-1 1-1 2c0 0 0 0-1 1c-1 2-2 3-4 4c-1 1-1 1-1 1c-1 0-1 1-2 1c0 0-1 0-1 0c-1 0-1 1-2 1c-1 0-2 0-3 0l-80 0c-9 0-16-7-16-16c0-9 7-16 16-16l41 0l-105-105l-37 36c-6 7-16 7-22 0l-64-64c-7-6-7-16 0-22c3-3 7-5 11-5c4 0 8 2 11 5l53 52l37-36c6-7 16-7 22 0l117 116z"/>
</font>
</defs>
</svg>
